Torrent Details For "18+ The Pastor And The Pro 2018 Movies 720p HDRip x264 5.1 ESubs with Sample ☻rDX☻"

18+ The Pastor And The Pro 2018 Movies 720p HDRip x264 5.1 ESubs with Sample ☻rDX☻

Uploader's RSS Magnet Download Alt Download Safe Download Fast Download


Title: 18+ The Pastor And The Pro 2018 Movies 720p HDRip x264 5.1 ESubs with Sample ☻rDX☻
Category: Movies > Comedy
Uploader:

Uploaded by rdx*16320

Date:

Uploaded on: Nov 09th, 2018

Seeders: 0
Leechers: 69
Completed: 0
Downloaded: 13
Size: 962.52 MB
Language: English English
18+ The Pastor And The Pro 2018 Movies 720p HDRip x264 5.1 ESubs with Sample ☻rDX☻

:clapSCREEN SHOTS & POSTER::clap

https://iphonehosting.eu/2018/11/a/loan/index.html
https://iphonehosting.eu/2018/11/a/loan/1.html
https://iphonehosting.eu/2018/11/a/loan/2.html
https://iphonehosting.eu/2018/11/a/loan/3.html
https://iphonehosting.eu/2018/11/a/loan/4.html
https://iphonehosting.eu/2018/11/a/loan/5.html
https://iphonehosting.eu/2018/11/a/loan/6.html
https://iphonehosting.eu/2018/11/a/loan/7.html
https://iphonehosting.eu/2018/11/a/loan/8.html
https://iphonehosting.eu/2018/11/a/loan/9.html
https://iphonehosting.eu/2018/11/a/loan/10.html


File size                                : 954 MiB
Duration                                 : 1 h 17 min
Overall bit rate                         : 1 710 kb/s
Movie name                               : 18+ The Pastor And The Pro 2018 Movies 720p HDRip x264 5.1 ESubs ☻rDX☻

Video
ID                                       : 2
Format                                   : AVC
Format/Info                              : Advanced Video Codec
Format profile                           : [email protected]
Format settings, CABAC                   : Yes
Format settings, ReFrames                : 5 frames
Codec ID                                 : V_MPEG4/ISO/AVC
Duration                                 : 1 h 17 min
Bit rate                                 : 1 484 kb/s
Width                                    : 1 280 pixels
Height                                   : 720 pixels
Display aspect ratio                     : 16:9
Frame rate mode                          : Constant
Frame rate                               : 23.976 (24000/1001) FPS
Color space                              : YUV
Chroma subsampling                       : 4:2:0
Bit depth                                : 8 bits
Scan type                                : Progressive
Bits/(Pixel*Frame)                       : 0.067
Stream size                              : 828 MiB (87%)
Title                                    : ☻rDX☻
Default                                  : Yes
Forced                                   : No
Color range                              : Limited
Color primaries                          : BT.709
Transfer characteristics                 : BT.709
Matrix coefficients                      : BT.709

Audio
ID                                       : 1
Format                                   : AC-3
Format/Info                              : Audio Coding 3
Mode extension                           : CM (complete main)
Format settings, Endianness              : Big
Codec ID                                 : A_AC3
Duration                                 : 1 h 17 min
Bit rate mode                            : Constant
Bit rate                                 : 192 kb/s
Channel(s)                               : 6 channels
Channel positions                        : Front: L C R, Side: L R, LFE
Sampling rate                            : 44.1 kHz
Frame rate                               : 28.711 FPS (1536 spf)
Bit depth                                : 16 bits
Compression mode                         : Lossy
Stream size                              : 107 MiB (11%)
Title                                    : ☻rDX☻
Default                                  : Yes
Forced                                   : No

Text
ID                                       : 3
Format                                   : UTF-8
Codec ID                                 : S_TEXT/UTF8
Codec ID/Info                            : UTF-8 Plain Text
Title                                    : ☻rDX☻
Language                                 : English
Default                                  : Yes
Forced                                   : No

https://www.imdb.com/title/tt7952840/
File Name: Size:
18+ The Pastor And The Pro 2018 Movies 720p HDRip x264 5.1 ESubs ☻rDX☻.mkv953.71 MB
Sample ~ 18+ The Pastor And The Pro 2018 Movies 720p HDRip x264 5.1 ESubs ☻rDX☻.mkv8.81 MB
The Pastor and the Pro
Title: The Pastor and the Pro
Rated: 10 by 1 People.
A.K.A : The Pastor and the Pro
Released: 2018-11-09
Runtime: Minutes
Genre: 35
Language: en
Budget: USD
Plot: A young, single pastor needs a date for a church dinner, so he hires his neighbor next door, who works as a prostitute, to accompany him. As she becomes more entangled in his life, her demands become more outrageous. Now he must navigate a moral minefield as he uses the unholy alliance to advance his ministry career. And things get more complicated when he starts to fall in love with her. A comedy about people who desperately want to convert each other.
TMDB
TrackersSeedersLeechersCompleted
udp://tracker.coppersurfer.tk:6969/announce0690
Request Reseed
Torrent Hash: 4E56972CEEF016709B0D560AD053BB147F3E406C
Not Yet Rated (Log in to rate it)
No comments still posted


Embed & Sharing


Login


Email:
Password:
[Signup]
[Recover Account]

Latest Forum


Author : miokdonated
Subject :World Wide Release/WWRG (Page ...
Last Replies :  Deep61
On : 2018-11-16 19:54:37

Author : Deep61
Subject :Deep61's Soaps,TV,and E books ...
Last Replies :  Deep61
On : 2018-11-16 19:54:31

Author : Chelsea
Subject :Hello Goodbye v2
Last Replies :  Prof_X
On : 2018-11-16 19:45:18

Author : cRAYzprivateer
Subject :Word Morph Game
Last Replies :  Prof_X
On : 2018-11-16 19:44:13

Author : smbd20009
Subject :Google DSCF image game
Last Replies :  Prof_X
On : 2018-11-16 19:43:52

Author : cRAYzprivateer
Subject :Vehicle Name Game V1
Last Replies :  Prof_X
On : 2018-11-16 19:41:49

Author : NotNeo
Subject :A-Z Sentence of 3+ words start...
Last Replies :  Prof_X
On : 2018-11-16 19:40:10

Author : miokdonated
Subject :Google Image Game v2
Last Replies :  Prof_X
On : 2018-11-16 19:38:18

Author : Beowulf
Subject :Random natural pics on this Pl...
Last Replies :  Prof_X
On : 2018-11-16 19:36:47

Author : Beowulf
Subject :Count to 150! Before it gets r...
Last Replies :  Prof_X
On : 2018-11-16 19:33:31

Author : dascubadude
Subject :The First WorldWide Torrents R...
Last Replies :  Prof_X
On : 2018-11-16 19:31:42

Author : cRAYzprivateer
Subject :This or That? V1
Last Replies :  Prof_X
On : 2018-11-16 19:28:51


Pinned Threads


Author : Deep61
Subject :2018 NASCAR Monster Energy Cup...
Last Replies :  skunklove
On : 2018-11-14 07:45:44

Author : Chelsea
Subject :Trick Math Questions Competiti...
Last Replies :  Jpwb8
On : 2018-11-15 13:22:02

Author : TestNTune
Subject :WWT Site Update Thread
Last Replies :  skunklove
On : 2018-11-15 10:12:05

Author : Gear Shifterdonated
Subject :WWT 2018/2019 NFL Competition
Last Replies :  steelman8713
On : 2018-11-15 02:37:55

Author : Chelsea
Subject :Guess the Movie!
Last Replies :  Gear Shifterdonated
On : 2018-11-14 06:20:33

Author : Gear Shifterdonated
Subject :NFL 2019 Super Bowl Competitio...
Last Replies :  Reaper
On : 2018-11-14 05:20:41

Author : Csabaxb
Subject :Can You Guess The Band
Last Replies :  Gear Shifterdonated
On : 2018-11-14 06:21:23



Blog




Site Friends