Torrent Details For "18+ The Pastor And The Pro 2018 Movies HDRip x264 5.1 ESubs with Sample ☻rDX☻"

18+ The Pastor And The Pro 2018 Movies HDRip x264 5.1 ESubs with Sample ☻rDX☻

Uploader's RSS Magnet Download Alt Download Safe Download Fast Download


Title: 18+ The Pastor And The Pro 2018 Movies HDRip x264 5.1 ESubs with Sample ☻rDX☻
Category: Movies > Comedy
Uploader:

Uploaded by rdx*16293

Date:

Uploaded on: Nov 09th, 2018

Seeders: 2
Leechers: 8
Completed: 203
Downloaded: 12
Size: 766.21 MB
Language: English English
18+ The Pastor And The Pro 2018 Movies HDRip x264 5.1 ESubs with Sample ☻rDX☻

:clapSCREEN SHOTS & POSTER::clap

https://iphonehosting.eu/2018/11/a/loans/index.html
https://iphonehosting.eu/2018/11/a/loans/1.html
https://iphonehosting.eu/2018/11/a/loans/2.html
https://iphonehosting.eu/2018/11/a/loans/3.html
https://iphonehosting.eu/2018/11/a/loans/4.html
https://iphonehosting.eu/2018/11/a/loans/5.html
https://iphonehosting.eu/2018/11/a/loans/6.html
https://iphonehosting.eu/2018/11/a/loans/7.html
https://iphonehosting.eu/2018/11/a/loans/8.html
https://iphonehosting.eu/2018/11/a/loans/9.html
https://iphonehosting.eu/2018/11/a/loans/10.html


File size                                : 757 MiB
Duration                                 : 1 h 17 min
Overall bit rate                         : 1 356 kb/s
Movie name                               : 18+ The Pastor And The Pro 2018 Movies HDRip x264 5.1 ESubs ☻rDX☻

Video
ID                                       : 2
Format                                   : AVC
Format/Info                              : Advanced Video Codec
Format profile                           : [email protected]
Format settings, CABAC                   : Yes
Format settings, ReFrames                : 2 frames
Format settings, GOP                     : M=1, N=12
Codec ID                                 : V_MPEG4/ISO/AVC
Duration                                 : 1 h 17 min
Bit rate mode                            : Constant
Bit rate                                 : 1 165 kb/s
Width                                    : 700 pixels
Height                                   : 394 pixels
Display aspect ratio                     : 16:9
Frame rate mode                          : Constant
Frame rate                               : 23.976 (24000/1001) FPS
Color space                              : YUV
Chroma subsampling                       : 4:2:0
Bit depth                                : 8 bits
Scan type                                : Progressive
Bits/(Pixel*Frame)                       : 0.176
Stream size                              : 634 MiB (84%)
Title                                    : ☻rDX☻
Default                                  : Yes
Forced                                   : No

Audio
ID                                       : 1
Format                                   : AC-3
Format/Info                              : Audio Coding 3
Mode extension                           : CM (complete main)
Format settings, Endianness              : Big
Codec ID                                 : A_AC3
Duration                                 : 1 h 17 min
Bit rate mode                            : Constant
Bit rate                                 : 192 kb/s
Channel(s)                               : 6 channels
Channel positions                        : Front: L C R, Side: L R, LFE
Sampling rate                            : 44.1 kHz
Frame rate                               : 28.711 FPS (1536 spf)
Bit depth                                : 16 bits
Compression mode                         : Lossy
Stream size                              : 107 MiB (14%)
Title                                    : ☻rDX☻
Default                                  : Yes
Forced                                   : No

Text
ID                                       : 3
Format                                   : UTF-8
Codec ID                                 : S_TEXT/UTF8
Codec ID/Info                            : UTF-8 Plain Text
Title                                    : ☻rDX☻
Language                                 : English
Default                                  : Yes
Forced                                   : No

https://www.imdb.com/title/tt7952840/
File Name: Size:
18+ The Pastor And The Pro 2018 Movies HDRip x264 5.1 ESubs ☻rDX☻.mkv756.51 MB
Sample ~ 18+ The Pastor And The Pro 2018 Movies HDRip x264 5.1 ESubs ☻rDX☻.mkv9.70 MB
The Pastor and the Pro
Title: The Pastor and the Pro
Rated: 10 by 1 People.
A.K.A : The Pastor and the Pro
Released: 2018-11-09
Runtime: Minutes
Genre: 35
Language: en
Budget: USD
Plot: A young, single pastor needs a date for a church dinner, so he hires his neighbor next door, who works as a prostitute, to accompany him. As she becomes more entangled in his life, her demands become more outrageous. Now he must navigate a moral minefield as he uses the unholy alliance to advance his ministry career. And things get more complicated when he starts to fall in love with her. A comedy about people who desperately want to convert each other.
TMDB
TrackersSeedersLeechersCompleted
udp://tracker.coppersurfer.tk:6969/announce28203
Torrent Hash: 620196C38140560204514E894CE88A665CD7BEE2
Not Yet Rated (Log in to rate it)
No comments still posted


Embed & Sharing


Login


Email:
Password:
[Signup]
[Recover Account]

Latest Forum


Author : cRAYzprivateer
Subject :Alphabetical 4 Letter Words V2
Last Replies :  GodAndUlsterdonated
On : 2018-11-16 14:07:25

Author : Deep61
Subject :Last Letter Game V5
Last Replies :  GodAndUlsterdonated
On : 2018-11-16 14:06:09

Author : Nemesis43
Subject :Comic Request Thread v08
Last Replies :  astralopitecus
On : 2018-11-16 14:05:45

Author : GodAndUlsterdonated
Subject :You Can Share Your Adult Jokes...
Last Replies :  GodAndUlsterdonated
On : 2018-11-16 14:01:23

Author : GodAndUlsterdonated
Subject :A-Z Post a word that ends with...
Last Replies :  GodAndUlsterdonated
On : 2018-11-16 13:53:20

Author : miokdonated
Subject :Google Meets Russian Govt Body...
Last Replies :  miokdonated
On : 2018-11-16 13:53:12

Author : Chelsea
Subject :Black & White Art v2
Last Replies :  Prof_X
On : 2018-11-16 13:47:24

Author : nisu99
Subject :E-books Request Thread v3
Last Replies :  paisley79
On : 2018-11-16 13:13:58

Author : skunklove
Subject :Quote of The Day
Last Replies :  miokdonated
On : 2018-11-16 13:04:30

Author : cRAYzprivateer
Subject :A-Z Words Ending in "TION"
Last Replies :  Jpwb8
On : 2018-11-16 11:12:58


Pinned Threads


Author : Deep61
Subject :2018 NASCAR Monster Energy Cup...
Last Replies :  skunklove
On : 2018-11-14 07:45:44

Author : Chelsea
Subject :Trick Math Questions Competiti...
Last Replies :  Jpwb8
On : 2018-11-15 13:22:02

Author : TestNTune
Subject :WWT Site Update Thread
Last Replies :  skunklove
On : 2018-11-15 10:12:05

Author : Gear Shifterdonated
Subject :WWT 2018/2019 NFL Competition
Last Replies :  steelman8713
On : 2018-11-15 02:37:55

Author : Chelsea
Subject :Guess the Movie!
Last Replies :  Gear Shifterdonated
On : 2018-11-14 06:20:33

Author : Gear Shifterdonated
Subject :NFL 2019 Super Bowl Competitio...
Last Replies :  Reaper
On : 2018-11-14 05:20:41

Author : Csabaxb
Subject :Can You Guess The Band
Last Replies :  Gear Shifterdonated
On : 2018-11-14 06:21:23



Blog




Site Friends