Torrent Details For "Sadie 2018 Movies HDRip x264 5.1 with Sample ☻rDX☻"

Sadie 2018 Movies HDRip x264 5.1 with Sample ☻rDX☻

Uploader's RSS Magnet Download Alt Download Safe Download Fast Download


Title: Sadie 2018 Movies HDRip x264 5.1 with Sample ☻rDX☻
Category: Movies > Drama
Uploader:

Uploaded by rdx*16320

Date:

Uploaded on: Nov 09th, 2018

Seeders: 0
Leechers: 18
Completed: 0
Downloaded: 8
Size: 789.06 MB
Language: English English
Sadie 2018 Movies HDRip x264 5.1 with Sample ☻rDX☻

:clapSCREEN SHOTS & POSTER::clap

https://iphonehosting.eu/2018/11/a/lunch/index.html
https://iphonehosting.eu/2018/11/a/lunch/1.html
https://iphonehosting.eu/2018/11/a/lunch/2.html
https://iphonehosting.eu/2018/11/a/lunch/3.html
https://iphonehosting.eu/2018/11/a/lunch/4.html
https://iphonehosting.eu/2018/11/a/lunch/5.html
https://iphonehosting.eu/2018/11/a/lunch/6.html
https://iphonehosting.eu/2018/11/a/lunch/7.html
https://iphonehosting.eu/2018/11/a/lunch/8.html
https://iphonehosting.eu/2018/11/a/lunch/9.html
https://iphonehosting.eu/2018/11/a/lunch/10.html


File size                                : 781 MiB
Duration                                 : 1 h 36 min
Overall bit rate mode                    : Constant
Overall bit rate                         : 1 136 kb/s
Movie name                               : Sadie 2018 Movies HDRip x264 5.1 ☻rDX☻

Video
ID                                       : 2
Format                                   : AVC
Format/Info                              : Advanced Video Codec
Format profile                           : [email protected]
Format settings, CABAC                   : Yes
Format settings, ReFrames                : 2 frames
Format settings, GOP                     : M=1, N=12
Codec ID                                 : V_MPEG4/ISO/AVC
Duration                                 : 1 h 36 min
Bit rate mode                            : Constant
Bit rate                                 : 945 kb/s
Width                                    : 720 pixels
Height                                   : 384 pixels
Display aspect ratio                     : 1.85:1
Frame rate mode                          : Constant
Frame rate                               : 23.976 FPS
Color space                              : YUV
Chroma subsampling                       : 4:2:0
Bit depth                                : 8 bits
Scan type                                : Progressive
Bits/(Pixel*Frame)                       : 0.143
Stream size                              : 633 MiB (81%)
Title                                    : ☻rDX☻
Default                                  : Yes
Forced                                   : No

Audio
ID                                       : 1
Format                                   : AC-3
Format/Info                              : Audio Coding 3
Mode extension                           : CM (complete main)
Format settings, Endianness              : Big
Codec ID                                 : A_AC3
Duration                                 : 1 h 36 min
Bit rate mode                            : Constant
Bit rate                                 : 192 kb/s
Channel(s)                               : 6 channels
Channel positions                        : Front: L C R, Side: L R, LFE
Sampling rate                            : 44.1 kHz
Frame rate                               : 28.711 FPS (1536 spf)
Bit depth                                : 16 bits
Compression mode                         : Lossy
Stream size                              : 132 MiB (17%)
Title                                    : ☻rDX☻
Default                                  : Yes
Forced                                   : No

https://www.imdb.com/title/tt6504868/
File Name: Size:
Sadie 2018 Movies HDRip x264 5.1 ☻rDX☻.mkv781.04 MB
Sample ~ Sadie 2018 Movies HDRip x264 5.1 ☻rDX☻.mkv8.02 MB
Sadie
Title: Sadie
Rated: 9 by 2 People.
A.K.A : Sadie
Released: 2018-03-10
Runtime: Minutes
Genre: 18
Language: en
Budget: USD
Plot: While her father is away serving in the military, Sadie battles to preserve his place on the home front when her mother takes an interest in a new man.
TMDB
TrackersSeedersLeechersCompleted
udp://tracker.coppersurfer.tk:6969/announce0180
Request Reseed
Torrent Hash: D57E244F1525056922D9DD11515BEC1D62B78A6C
Not Yet Rated (Log in to rate it)
No comments still posted

Related Torrents


Embed & Sharing


Login


Email:
Password:
[Signup]
[Recover Account]

Latest Forum


Author : miokdonated
Subject :World Wide Release/WWRG (Page ...
Last Replies :  Deep61
On : 2018-11-16 19:54:37

Author : Deep61
Subject :Deep61's Soaps,TV,and E books ...
Last Replies :  Deep61
On : 2018-11-16 19:54:31

Author : Chelsea
Subject :Hello Goodbye v2
Last Replies :  Prof_X
On : 2018-11-16 19:45:18

Author : cRAYzprivateer
Subject :Word Morph Game
Last Replies :  Prof_X
On : 2018-11-16 19:44:13

Author : smbd20009
Subject :Google DSCF image game
Last Replies :  Prof_X
On : 2018-11-16 19:43:52

Author : cRAYzprivateer
Subject :Vehicle Name Game V1
Last Replies :  Prof_X
On : 2018-11-16 19:41:49

Author : NotNeo
Subject :A-Z Sentence of 3+ words start...
Last Replies :  Prof_X
On : 2018-11-16 19:40:10

Author : miokdonated
Subject :Google Image Game v2
Last Replies :  Prof_X
On : 2018-11-16 19:38:18

Author : Beowulf
Subject :Random natural pics on this Pl...
Last Replies :  Prof_X
On : 2018-11-16 19:36:47

Author : Beowulf
Subject :Count to 150! Before it gets r...
Last Replies :  Prof_X
On : 2018-11-16 19:33:31

Author : dascubadude
Subject :The First WorldWide Torrents R...
Last Replies :  Prof_X
On : 2018-11-16 19:31:42

Author : cRAYzprivateer
Subject :This or That? V1
Last Replies :  Prof_X
On : 2018-11-16 19:28:51


Pinned Threads


Author : Deep61
Subject :2018 NASCAR Monster Energy Cup...
Last Replies :  skunklove
On : 2018-11-14 07:45:44

Author : Chelsea
Subject :Trick Math Questions Competiti...
Last Replies :  Jpwb8
On : 2018-11-15 13:22:02

Author : TestNTune
Subject :WWT Site Update Thread
Last Replies :  skunklove
On : 2018-11-15 10:12:05

Author : Gear Shifterdonated
Subject :WWT 2018/2019 NFL Competition
Last Replies :  steelman8713
On : 2018-11-15 02:37:55

Author : Chelsea
Subject :Guess the Movie!
Last Replies :  Gear Shifterdonated
On : 2018-11-14 06:20:33

Author : Gear Shifterdonated
Subject :NFL 2019 Super Bowl Competitio...
Last Replies :  Reaper
On : 2018-11-14 05:20:41

Author : Csabaxb
Subject :Can You Guess The Band
Last Replies :  Gear Shifterdonated
On : 2018-11-14 06:21:23



Blog




Site Friends