Torrent Details For "The Predator 2018 Movies HC HDRip x264 5.1 with Sample ☻rDX☻"

The Predator 2018 Movies HC HDRip x264 5.1 with Sample ☻rDX☻

Uploader's RSS Magnet Download Alt Download Safe Download Fast Download


Title: The Predator 2018 Movies HC HDRip x264 5.1 with Sample ☻rDX☻
Category: Movies > Action
Uploader:

Uploaded by rdx*16320

Date:

Uploaded on: Nov 09th, 2018

Seeders: 0
Leechers: 27
Completed: 0
Downloaded: 23
Size: 803.19 MB
Language: English English
The Predator 2018 Movies HC HDRip x264 5.1 with Sample ☻rDX☻

:clapSCREEN SHOTS & POSTER::clap

https://iphonehosting.eu/2018/11/a/market/index.html
https://iphonehosting.eu/2018/11/a/market/1.html
https://iphonehosting.eu/2018/11/a/market/2.html
https://iphonehosting.eu/2018/11/a/market/3.html
https://iphonehosting.eu/2018/11/a/market/4.html
https://iphonehosting.eu/2018/11/a/market/5.html
https://iphonehosting.eu/2018/11/a/market/6.html
https://iphonehosting.eu/2018/11/a/market/7.html
https://iphonehosting.eu/2018/11/a/market/8.html
https://iphonehosting.eu/2018/11/a/market/9.html
https://iphonehosting.eu/2018/11/a/market/10.html


File size                                : 795 MiB
Duration                                 : 1 h 46 min
Overall bit rate mode                    : Constant
Overall bit rate                         : 1 041 kb/s
Movie name                               : The Predator 2018 Movies HC HDRip x264 5.1 ☻rDX☻

Video
ID                                       : 2
Format                                   : AVC
Format/Info                              : Advanced Video Codec
Format profile                           : [email protected]
Format settings, CABAC                   : Yes
Format settings, ReFrames                : 2 frames
Format settings, GOP                     : M=1, N=12
Codec ID                                 : V_MPEG4/ISO/AVC
Duration                                 : 1 h 46 min
Bit rate mode                            : Constant
Bit rate                                 : 850 kb/s
Width                                    : 720 pixels
Height                                   : 304 pixels
Display aspect ratio                     : 2.35:1
Frame rate mode                          : Constant
Frame rate                               : 30.000 FPS
Color space                              : YUV
Chroma subsampling                       : 4:2:0
Bit depth                                : 8 bits
Scan type                                : Progressive
Bits/(Pixel*Frame)                       : 0.129
Stream size                              : 633 MiB (80%)
Title                                    : ☻rDX☻
Default                                  : Yes
Forced                                   : No

Audio
ID                                       : 1
Format                                   : AC-3
Format/Info                              : Audio Coding 3
Mode extension                           : CM (complete main)
Format settings, Endianness              : Big
Codec ID                                 : A_AC3
Duration                                 : 1 h 46 min
Bit rate mode                            : Constant
Bit rate                                 : 192 kb/s
Channel(s)                               : 6 channels
Channel positions                        : Front: L C R, Side: L R, LFE
Sampling rate                            : 44.1 kHz
Frame rate                               : 28.711 FPS (1536 spf)
Bit depth                                : 16 bits
Compression mode                         : Lossy
Stream size                              : 147 MiB (18%)
Title                                    : ☻rDX☻
Default                                  : Yes
Forced                                   : No

https://www.imdb.com/title/tt3829266/
File Name: Size:
Sample ~ The Predator 2018 Movies HC HDRip x264 5.1 ☻rDX☻..mkv8.04 MB
The Predator 2018 Movies HC HDRip x264 5.1 ☻rDX☻.mkv795.15 MB
The Predator
Title: The Predator
Rated: 5.3 by 807 People.
A.K.A : The Predator
Released: 2018-09-13
Runtime: Minutes
Genre: 28, 12, 878, 53
Language: en
Budget: USD
Plot: From the outer reaches of space to the small-town streets of suburbia, the hunt comes home. Now, the universe’s most lethal hunters are stronger, smarter and deadlier than ever before, having genetically upgraded themselves with DNA from other species. When a young boy accidentally triggers their return to Earth, only a ragtag crew of ex-soldiers and a disgruntled science teacher can prevent the end of the human race.
TMDB
TrackersSeedersLeechersCompleted
udp://tracker.coppersurfer.tk:6969/announce0270
Request Reseed
Torrent Hash: 38069FD238A7284D79C32A99D0F4C2E5130D32C9
Not Yet Rated (Log in to rate it)
No comments still posted

Related Torrents


Embed & Sharing


Login


Email:
Password:
[Signup]
[Recover Account]

Latest Forum


Author : Oss
Subject :A-Z Things you wear
Last Replies :  Drax2099
On : 2018-11-16 20:55:49

Author : cRAYzprivateer
Subject :A-Z Something You Keep Hidden
Last Replies :  Drax2099
On : 2018-11-16 20:54:51

Author : cRAYzprivateer
Subject :A-Z Words That End in a Vowel
Last Replies :  Drax2099
On : 2018-11-16 20:53:08

Author : Deep61
Subject :Alphabetical City Name Game V2
Last Replies :  Drax2099
On : 2018-11-16 20:52:30

Author : cRAYzprivateer
Subject :Alphabetical Body Parts Threa...
Last Replies :  Drax2099
On : 2018-11-16 20:51:32

Author : cRAYzprivateer
Subject :Rhyme Time Game
Last Replies :  Drax2099
On : 2018-11-16 20:50:36

Author : Chelsea
Subject :A-Z Words Ending in ST
Last Replies :  Drax2099
On : 2018-11-16 20:47:07

Author : cRAYzprivateer
Subject :A-Z Occupations Game V1
Last Replies :  Drax2099
On : 2018-11-16 20:46:07

Author : Chelsea
Subject :A-Z Of Words Ending in SS
Last Replies :  Drax2099
On : 2018-11-16 20:44:56

Author : jammie
Subject :A-Z Of Football Teams
Last Replies :  Drax2099
On : 2018-11-16 20:42:29

Author : Lone_Wolf
Subject :Answer the question above you.
Last Replies :  Drax2099
On : 2018-11-16 20:39:20

Author : miokdonated
Subject :World Wide Release/WWRG (Page ...
Last Replies :  Deep61
On : 2018-11-16 20:29:29


Pinned Threads


Author : Deep61
Subject :2018 NASCAR Monster Energy Cup...
Last Replies :  skunklove
On : 2018-11-14 07:45:44

Author : Chelsea
Subject :Trick Math Questions Competiti...
Last Replies :  Jpwb8
On : 2018-11-15 13:22:02

Author : TestNTune
Subject :WWT Site Update Thread
Last Replies :  skunklove
On : 2018-11-15 10:12:05

Author : Gear Shifterdonated
Subject :WWT 2018/2019 NFL Competition
Last Replies :  steelman8713
On : 2018-11-15 02:37:55

Author : Chelsea
Subject :Guess the Movie!
Last Replies :  Gear Shifterdonated
On : 2018-11-14 06:20:33

Author : Gear Shifterdonated
Subject :NFL 2019 Super Bowl Competitio...
Last Replies :  Reaper
On : 2018-11-14 05:20:41

Author : Csabaxb
Subject :Can You Guess The Band
Last Replies :  Gear Shifterdonated
On : 2018-11-14 06:21:23



Blog




Site Friends