Torrent Details For "River Runs Red 2018 Movies HDRip x264 5.1 with Sample ☻rDX☻"

River Runs Red 2018 Movies HDRip x264 5.1 with Sample ☻rDX☻

Uploader's RSS Magnet Download Alt Download Safe Download Fast Download


Title: River Runs Red 2018 Movies HDRip x264 5.1 with Sample ☻rDX☻
Category: Movies > Mystery/Thriller
Uploader:

Uploaded by rdx*16438

Date:

Uploaded on: Nov 09th, 2018

Seeders: 7
Leechers: 42
Completed: 0
Downloaded: 12
Size: 786.70 MB
Language: English English
River Runs Red 2018 Movies HDRip x264 5.1 with Sample ☻rDX☻

:clapSCREEN SHOTS & POSTER::clap

https://iphonehosting.eu/2018/11/a/medicine/index.html
https://iphonehosting.eu/2018/11/a/medicine/1.html
https://iphonehosting.eu/2018/11/a/medicine/2.html
https://iphonehosting.eu/2018/11/a/medicine/3.html
https://iphonehosting.eu/2018/11/a/medicine/4.html
https://iphonehosting.eu/2018/11/a/medicine/5.html
https://iphonehosting.eu/2018/11/a/medicine/6.html
https://iphonehosting.eu/2018/11/a/medicine/7.html
https://iphonehosting.eu/2018/11/a/medicine/8.html
https://iphonehosting.eu/2018/11/a/medicine/9.html
https://iphonehosting.eu/2018/11/a/medicine/10.html


File size                                : 779 MiB
Duration                                 : 1 h 34 min
Overall bit rate mode                    : Constant
Overall bit rate                         : 1 156 kb/s
Movie name                               : River Runs Red 2018 Movies HDRip x264 5.1 ☻rDX☻

Video
ID                                       : 2
Format                                   : AVC
Format/Info                              : Advanced Video Codec
Format profile                           : [email protected]
Format settings, CABAC                   : Yes
Format settings, ReFrames                : 2 frames
Format settings, GOP                     : M=1, N=12
Codec ID                                 : V_MPEG4/ISO/AVC
Duration                                 : 1 h 34 min
Bit rate mode                            : Constant
Bit rate                                 : 965 kb/s
Width                                    : 720 pixels
Height                                   : 304 pixels
Display aspect ratio                     : 2.35:1
Frame rate mode                          : Constant
Frame rate                               : 23.976 (24000/1001) FPS
Color space                              : YUV
Chroma subsampling                       : 4:2:0
Bit depth                                : 8 bits
Scan type                                : Progressive
Bits/(Pixel*Frame)                       : 0.184
Stream size                              : 634 MiB (81%)
Title                                    : ☻rDX☻
Default                                  : Yes
Forced                                   : No

Audio
ID                                       : 1
Format                                   : AC-3
Format/Info                              : Audio Coding 3
Mode extension                           : CM (complete main)
Format settings, Endianness              : Big
Codec ID                                 : A_AC3
Duration                                 : 1 h 34 min
Bit rate mode                            : Constant
Bit rate                                 : 192 kb/s
Channel(s)                               : 6 channels
Channel positions                        : Front: L C R, Side: L R, LFE
Sampling rate                            : 44.1 kHz
Frame rate                               : 28.711 FPS (1536 spf)
Bit depth                                : 16 bits
Compression mode                         : Lossy
Stream size                              : 129 MiB (17%)
Title                                    : ☻rDX☻
Default                                  : Yes
Forced                                   : No

https://www.imdb.com/title/tt5843780/
File Name: Size:
River Runs Red 2018 Movies HDRip x264 5.1 ☻rDX☻.mkv778.68 MB
Sample ~ River Runs Red 2018 Movies HDRip x264 5.1 ☻rDX☻.mkv8.01 MB
River Runs Red
Title: River Runs Red
Rated: 4.3 by 5 People.
A.K.A : River Runs Red
Released: 2018-11-09
Runtime: Minutes
Genre: 53
Language: en
Budget: USD
Plot: When the son of a successful judge is killed by two police officers and the system sets them free, a hardened veteran detective finds some incriminating files on the officers and the judge teams up with another mourning father to take the law into his own hands.
TMDB
TrackersSeedersLeechersCompleted
udp://tracker.coppersurfer.tk:6969/announce7420
Torrent Hash: CC0340A62BC0B67D13DAC5C9F186F7A06FFD4B1B
Not Yet Rated (Log in to rate it)
No comments still posted

Related Torrents


Embed & Sharing


Login


Email:
Password:
[Signup]
[Recover Account]

Latest Forum


Author : Nemesis43
Subject :Comic Request Thread v08
Last Replies :  tylerdanger96
On : 2018-11-19 19:58:23

Author : miokdonated
Subject :World Wide Release/WWRG (Page ...
Last Replies :  Deep61
On : 2018-11-19 19:54:49

Author : Deep61
Subject :Deep61's Soaps,TV,and E books ...
Last Replies :  Deep61
On : 2018-11-19 19:54:29

Author : NotNeo
Subject :NotNeo's Scripts
Last Replies :  NotNeo
On : 2018-11-19 19:45:57

Author : Chelsea
Subject :Black & White Art v2
Last Replies :  Chelsea
On : 2018-11-19 19:15:25

Author : harleyquinn
Subject :Audio Book Request Thread
Last Replies :  SirQuill
On : 2018-11-19 19:08:42

Author : Chelsea
Subject :WorldWide Street Art v2
Last Replies :  Chelsea
On : 2018-11-19 19:01:25

Author : Chelsea
Subject :Beautiful Gardens Around the W...
Last Replies :  Chelsea
On : 2018-11-19 18:56:23

Author : Beowulf
Subject :Beautiful Airplanes and Helico...
Last Replies :  Chelsea
On : 2018-11-19 18:49:07

Author : Deep61
Subject :Is the site up or down?
Last Replies :  Beowulf
On : 2018-11-19 18:40:58

Author : cRAYzprivateer
Subject :A-Z Words Ending in "ED"
Last Replies :  skunklove
On : 2018-11-19 18:31:30


Pinned Threads


Author : Deep61
Subject :2018 NASCAR Monster Energy Cup...
Last Replies :  Deep61
On : 2018-11-19 12:53:28

Author : Chelsea
Subject :Trick Math Questions Competiti...
Last Replies :  pythagoras
On : 2018-11-19 15:41:34

Author : TestNTune
Subject :WWT Site Update Thread
Last Replies :  skunklove
On : 2018-11-15 10:12:05

Author : Gear Shifterdonated
Subject :WWT 2018/2019 NFL Competition
Last Replies :  Midnight Rider
On : 2018-11-19 06:09:20

Author : Chelsea
Subject :Guess the Movie!
Last Replies :  Chelsea
On : 2018-11-18 14:03:33

Author : Gear Shifterdonated
Subject :NFL 2019 Super Bowl Competitio...
Last Replies :  Reaper
On : 2018-11-14 05:20:41

Author : Csabaxb
Subject :Can You Guess The Band
Last Replies :  Midnight Rider
On : 2018-11-18 13:20:48



Blog




Site Friends




Latest Torrents
Torrents NameSizeSLAge
Jupiter's Moon-Una Luna Chiamata Europa (2017).1080p.H264.italian.hungarian.Ac3-5.1.sub.ita-MIRCrew
       0


by BaMax71 in Movies > Highres Movies
3.25 GB 0 0 2 mins ago
Hereditary-Le Radici Del Male (2018).1080p.H264.italian.english.Ac3-5.1.sub.ita-MIRCrew
       0


by BaMax71 in Movies > Highres Movies
3.24 GB 8 18 8 mins ago
Braven-Il Coraggioso (2018).1080p.H264.italian.Ac3-2.0.english.Ac3-5.1.sub.ita-MIRCrew
       0


by BaMax71 in Movies > Highres Movies
2.35 GB 4 69 14 mins ago
The Brits Are Coming-La Truffa E Servita (2018).1080p.H264.italian.english.Ac3-5.1.sub.ita-MIRCrew
       0


by BaMax71 in Movies > Highres Movies
2.41 GB 9 104 20 mins ago
Every Day-Ogni Giorno (2017).1080p.H264.italian.english.Ac3-5.1.sub.ita-MIRCrew
       0


by BaMax71 in Movies > Highres Movies
2.48 GB 9 36 24 mins ago
Emmerdale 19th Nov 2018 1080p (Deep61) [WWRG]
       0


by Deep61 in TV > HD
481.50 MB 6 15 25 mins ago
[Private] Dolly Diore, Lexi Layo - Ass Licking Threesome (19.11.2018) rq.mp4
       0


by rqj93067 in XXX > Video
266.13 MB 15 142 47 mins ago
[FirstAnalQuest] Young Hannah Vivienne s anal creampie (18.11.2018) rq.mp4
       0


by rqj93067 in XXX > Video
221.92 MB 0 81 50 mins ago
[FamilyStrokes] Crystal Rush - Stepmom Soothes My Erection (19.11.2018) rq.mp4
       0


by rqj93067 in XXX > Video
429.49 MB 7 58 52 mins ago
Hollyoaks 19th Nov 2018 1080p (Deep61) [WWRG]
       0


by Deep61 in TV > HD
480.91 MB 5 8 54 mins ago

Radio