Torrent Details For "18+ Here And Now 2018 Movies HDRip x264 5.1 with Sample ☻rDX☻"

18+ Here And Now 2018 Movies HDRip x264 5.1 with Sample ☻rDX☻

Uploader's RSS Magnet Download Alt Download Safe Download Fast Download


Title: 18+ Here And Now 2018 Movies HDRip x264 5.1 with Sample ☻rDX☻
Category: Movies > Comedy
Uploader:

Uploaded by rdx*16438

Date:

Uploaded on: Nov 09th, 2018

Seeders: 10
Leechers: 25
Completed: 0
Downloaded: 8
Size: 782.72 MB
Language: English English
18+ Here And Now 2018 Movies HDRip x264 5.1 with Sample ☻rDX☻

:clapSCREEN SHOTS & POSTER::clap

https://iphonehosting.eu/2018/11/a/microsoft/index.html
https://iphonehosting.eu/2018/11/a/microsoft/1.html
https://iphonehosting.eu/2018/11/a/microsoft/2.html
https://iphonehosting.eu/2018/11/a/microsoft/3.html
https://iphonehosting.eu/2018/11/a/microsoft/4.html
https://iphonehosting.eu/2018/11/a/microsoft/5.html
https://iphonehosting.eu/2018/11/a/microsoft/6.html
https://iphonehosting.eu/2018/11/a/microsoft/7.html
https://iphonehosting.eu/2018/11/a/microsoft/8.html
https://iphonehosting.eu/2018/11/a/microsoft/9.html
https://iphonehosting.eu/2018/11/a/microsoft/10.html


File size                                : 774 MiB
Duration                                 : 1 h 31 min
Overall bit rate mode                    : Constant
Overall bit rate                         : 1 189 kb/s
Movie name                               : Here And Now 2018 Movies HDRip x264 5.1 ☻rDX☻

Video
ID                                       : 2
Format                                   : AVC
Format/Info                              : Advanced Video Codec
Format profile                           : [email protected]
Format settings, CABAC                   : Yes
Format settings, ReFrames                : 2 frames
Format settings, GOP                     : M=1, N=12
Codec ID                                 : V_MPEG4/ISO/AVC
Duration                                 : 1 h 31 min
Bit rate mode                            : Constant
Bit rate                                 : 998 kb/s
Width                                    : 720 pixels
Height                                   : 304 pixels
Display aspect ratio                     : 2.35:1
Frame rate mode                          : Constant
Frame rate                               : 23.976 (24000/1001) FPS
Color space                              : YUV
Chroma subsampling                       : 4:2:0
Bit depth                                : 8 bits
Scan type                                : Progressive
Bits/(Pixel*Frame)                       : 0.190
Stream size                              : 634 MiB (82%)
Title                                    : ☻rDX☻
Language                                 : English
Default                                  : Yes
Forced                                   : No

Audio
ID                                       : 1
Format                                   : AC-3
Format/Info                              : Audio Coding 3
Mode extension                           : CM (complete main)
Format settings, Endianness              : Big
Codec ID                                 : A_AC3
Duration                                 : 1 h 31 min
Bit rate mode                            : Constant
Bit rate                                 : 192 kb/s
Channel(s)                               : 6 channels
Channel positions                        : Front: L C R, Side: L R, LFE
Sampling rate                            : 44.1 kHz
Frame rate                               : 28.711 FPS (1536 spf)
Bit depth                                : 16 bits
Compression mode                         : Lossy
Stream size                              : 125 MiB (16%)
Title                                    : ☻rDX☻
Default                                  : Yes
Forced                                   : No

https://www.imdb.com/title/tt5923012/
File Name: Size:
18+ Here And Now 2018 Movies HDRip x264 5.1 ☻rDX☻.mkv774.20 MB
Sample ~ 18+ Here And Now 2018 Movies HDRip x264 5.1 ☻rDX☻.mkv8.51 MB
TrackersSeedersLeechersCompleted
udp://tracker.coppersurfer.tk:6969/announce10250
Torrent Hash: 6F2727FBC8E2E797B37F4E9B2E8DF77D01204F37
Not Yet Rated (Log in to rate it)

Avatar Posted : 6 days ago

ROBBREDD



zzzZZZzz = Pointless and really Boring ... Good Print - Thanks for the share rdx ... A / V = 8  




Embed & Sharing


Login


Email:
Password:
[Signup]
[Recover Account]

Latest Forum


Author : NotNeo
Subject :NotNeo's Scripts
Last Replies :  NotNeo
On : 2018-11-19 19:45:57

Author : miokdonated
Subject :World Wide Release/WWRG (Page ...
Last Replies :  Deep61
On : 2018-11-19 19:26:01

Author : Deep61
Subject :Deep61's Soaps,TV,and E books ...
Last Replies :  Deep61
On : 2018-11-19 19:25:56

Author : Chelsea
Subject :Black & White Art v2
Last Replies :  Chelsea
On : 2018-11-19 19:15:25

Author : harleyquinn
Subject :Audio Book Request Thread
Last Replies :  SirQuill
On : 2018-11-19 19:08:42

Author : Chelsea
Subject :WorldWide Street Art v2
Last Replies :  Chelsea
On : 2018-11-19 19:01:25

Author : Chelsea
Subject :Beautiful Gardens Around the W...
Last Replies :  Chelsea
On : 2018-11-19 18:56:23

Author : Beowulf
Subject :Beautiful Airplanes and Helico...
Last Replies :  Chelsea
On : 2018-11-19 18:49:07

Author : Deep61
Subject :Is the site up or down?
Last Replies :  Beowulf
On : 2018-11-19 18:40:58

Author : cRAYzprivateer
Subject :A-Z Words Ending in "ED"
Last Replies :  skunklove
On : 2018-11-19 18:31:30

Author : RiverCoyote
Subject :Native Meditations
Last Replies :  Chelsea
On : 2018-11-19 18:17:14

Author : Deep61
Subject :The Numbers game V4
Last Replies :  Beowulf
On : 2018-11-19 17:41:00


Pinned Threads


Author : Deep61
Subject :2018 NASCAR Monster Energy Cup...
Last Replies :  Deep61
On : 2018-11-19 12:53:28

Author : Chelsea
Subject :Trick Math Questions Competiti...
Last Replies :  pythagoras
On : 2018-11-19 15:41:34

Author : TestNTune
Subject :WWT Site Update Thread
Last Replies :  skunklove
On : 2018-11-15 10:12:05

Author : Gear Shifterdonated
Subject :WWT 2018/2019 NFL Competition
Last Replies :  Midnight Rider
On : 2018-11-19 06:09:20

Author : Chelsea
Subject :Guess the Movie!
Last Replies :  Chelsea
On : 2018-11-18 14:03:33

Author : Gear Shifterdonated
Subject :NFL 2019 Super Bowl Competitio...
Last Replies :  Reaper
On : 2018-11-14 05:20:41

Author : Csabaxb
Subject :Can You Guess The Band
Last Replies :  Midnight Rider
On : 2018-11-18 13:20:48



Blog




Site Friends





Radio