Torrent Details For "Time Freak 2018 Movies HDRip x264 5.1 with Sample ☻rDX☻"

Time Freak 2018 Movies HDRip x264 5.1 with Sample ☻rDX☻

Uploader's RSS Magnet Download Alt Download Safe Download Fast Download


Title: Time Freak 2018 Movies HDRip x264 5.1 with Sample ☻rDX☻
Category: Movies > Comedy
Uploader:

Uploaded by rdx*16297

Date:

Uploaded on: Nov 09th, 2018

Seeders: 184
Leechers: 224
Completed: 915
Downloaded: 72
Size: 799.59 MB
Language: English English
Time Freak 2018 Movies HDRip x264 5.1 with Sample ☻rDX☻

:clapSCREEN SHOTS & POSTER::clap

https://iphonehosting.eu/2018/11/a/money/index.html
https://iphonehosting.eu/2018/11/a/money/1.html
https://iphonehosting.eu/2018/11/a/money/2.html
https://iphonehosting.eu/2018/11/a/money/3.html
https://iphonehosting.eu/2018/11/a/money/4.html
https://iphonehosting.eu/2018/11/a/money/5.html
https://iphonehosting.eu/2018/11/a/money/6.html
https://iphonehosting.eu/2018/11/a/money/7.html
https://iphonehosting.eu/2018/11/a/money/8.html
https://iphonehosting.eu/2018/11/a/money/9.html
https://iphonehosting.eu/2018/11/a/money/10.html


File size                                : 793 MiB
Duration                                 : 1 h 44 min
Overall bit rate mode                    : Constant
Overall bit rate                         : 1 057 kb/s
Movie name                               : Time Freak 2018 Movies HDRip x264 5.1 ☻rDX☻

Video
ID                                       : 2
Format                                   : AVC
Format/Info                              : Advanced Video Codec
Format profile                           : [email protected]
Format settings, CABAC                   : Yes
Format settings, ReFrames                : 2 frames
Format settings, GOP                     : M=1, N=12
Codec ID                                 : V_MPEG4/ISO/AVC
Duration                                 : 1 h 44 min
Bit rate mode                            : Constant
Bit rate                                 : 866 kb/s
Width                                    : 720 pixels
Height                                   : 384 pixels
Display aspect ratio                     : 1.85:1
Frame rate mode                          : Constant
Frame rate                               : 23.976 (24000/1001) FPS
Color space                              : YUV
Chroma subsampling                       : 4:2:0
Bit depth                                : 8 bits
Scan type                                : Progressive
Bits/(Pixel*Frame)                       : 0.131
Stream size                              : 633 MiB (80%)
Title                                    : ☻rDX☻
Default                                  : Yes
Forced                                   : No

Audio
ID                                       : 1
Format                                   : AC-3
Format/Info                              : Audio Coding 3
Mode extension                           : CM (complete main)
Format settings, Endianness              : Big
Codec ID                                 : A_AC3
Duration                                 : 1 h 44 min
Bit rate mode                            : Constant
Bit rate                                 : 192 kb/s
Channel(s)                               : 6 channels
Channel positions                        : Front: L C R, Side: L R, LFE
Sampling rate                            : 44.1 kHz
Frame rate                               : 28.711 FPS (1536 spf)
Bit depth                                : 16 bits
Compression mode                         : Lossy
Stream size                              : 144 MiB (18%)
Title                                    : ☻rDX☻
Default                                  : Yes
Forced                                   : No

https://www.imdb.com/title/tt6769280
File Name: Size:
Sample ~ Time Freak 2018 Movies HDRip x264 5.1 ☻rDX☻.mkv7.04 MB
Time Freak 2018 Movies HDRip x264 5.1 ☻rDX☻.mkv792.55 MB
Time Freak
Title: Time Freak
Rated: 7 by 5 People.
A.K.A : Time Freak
Released: 2018-11-09
Runtime: Minutes
Genre: 35, 18, 878
Language: en
Budget: USD
Plot: Stillman, a heartbroken physics student, builds a time machine when his girlfriend breaks up with him. Going back in time, he attempts to save their relationship by fixing every mistake he made—while dragging his best friend along in the process.
TMDB
TrackersSeedersLeechersCompleted
udp://tracker.coppersurfer.tk:6969/announce184224915
Torrent Hash: 6D406B9CD772F67231EBA97ED0B3B2FD761C5AA6
Not Yet Rated (Log in to rate it)
No comments still posted

Related Torrents

Torrents NameSizeSLAge
Time Freak 2018 Movies 720p HDRip x264 5.1 ESubs with Sample ☻rDX☻
       0


by rdx in Movies > Comedy
957.07 MB 28 4 6 days ago
Time Trap 2018 BRRip HQ
       0


by TiaeoChoa in Movies > Sci-Fi
1.31 GB 1 0 11 wks ago
Time After Time - Sci-Fi 1979 Eng Subs 720p [H264-mp4]
       0


by eyezz in Movies > Sci-Fi
1.23 GB 23 59 23 wks ago
Time After Time - Sci-Fi 1979 Eng Subs 1080p [H264-mp4]
       0


by eyezz in Movies > Sci-Fi
2.44 GB 1 18 24 wks ago
Time Trap 2017 HC HDRip.XviD.AC3-EVO
       0


by Silmarillion in Movies > Xvid/Divx
1.36 GB 312 62 28 wks ago


Embed & Sharing


Login


Email:
Password:
[Signup]
[Recover Account]

Latest Forum


Author : GodAndUlsterdonated
Subject :Post any word that ends with E...
Last Replies :  GodAndUlsterdonated
On : 2018-11-16 14:33:29

Author : GodAndUlsterdonated
Subject :Post a word that ends with LE
Last Replies :  GodAndUlsterdonated
On : 2018-11-16 14:31:35

Author : GodAndUlsterdonated
Subject :Post a flag image starting wit...
Last Replies :  GodAndUlsterdonated
On : 2018-11-16 14:29:30

Author : Beowulf
Subject :Watches and Clocks in the Worl...
Last Replies :  Beowulf
On : 2018-11-16 14:24:18

Author : Nemesis43
Subject :Comic Request Thread v08
Last Replies :  msn12
On : 2018-11-16 14:21:42

Author : Beowulf
Subject :Delicious Drinks worldwide.
Last Replies :  Beowulf
On : 2018-11-16 14:21:03

Author : Beowulf
Subject :Beautiful cars and motorcycles...
Last Replies :  Beowulf
On : 2018-11-16 14:16:08

Author : Reaper
Subject :Steampunk
Last Replies :  Beowulf
On : 2018-11-16 14:13:12

Author : Reaper
Subject :Reapers Random Image Thread V1
Last Replies :  Beowulf
On : 2018-11-16 14:09:38

Author : cRAYzprivateer
Subject :Alphabetical 4 Letter Words V2
Last Replies :  GodAndUlsterdonated
On : 2018-11-16 14:07:25

Author : Deep61
Subject :Last Letter Game V5
Last Replies :  GodAndUlsterdonated
On : 2018-11-16 14:06:09

Author : GodAndUlsterdonated
Subject :You Can Share Your Adult Jokes...
Last Replies :  GodAndUlsterdonated
On : 2018-11-16 14:01:23


Pinned Threads


Author : Deep61
Subject :2018 NASCAR Monster Energy Cup...
Last Replies :  skunklove
On : 2018-11-14 07:45:44

Author : Chelsea
Subject :Trick Math Questions Competiti...
Last Replies :  Jpwb8
On : 2018-11-15 13:22:02

Author : TestNTune
Subject :WWT Site Update Thread
Last Replies :  skunklove
On : 2018-11-15 10:12:05

Author : Gear Shifterdonated
Subject :WWT 2018/2019 NFL Competition
Last Replies :  steelman8713
On : 2018-11-15 02:37:55

Author : Chelsea
Subject :Guess the Movie!
Last Replies :  Gear Shifterdonated
On : 2018-11-14 06:20:33

Author : Gear Shifterdonated
Subject :NFL 2019 Super Bowl Competitio...
Last Replies :  Reaper
On : 2018-11-14 05:20:41

Author : Csabaxb
Subject :Can You Guess The Band
Last Replies :  Gear Shifterdonated
On : 2018-11-14 06:21:23



Blog




Site Friends