Torrent Details For "18+ In A Relationship 2018 UNCENSORED Movies HDRip x264 5.1 with Sample ☻rDX☻"

18+ In A Relationship 2018 UNCENSORED Movies HDRip x264 5.1 with Sample ☻rDX☻

Uploader's RSS Magnet Download Alt Download Safe Download Fast Download


Title: 18+ In A Relationship 2018 UNCENSORED Movies HDRip x264 5.1 with Sample ☻rDX☻
Category: Movies > Comedy
Uploader:

Uploaded by rdx*16320

Date:

Uploaded on: Nov 09th, 2018

Seeders: 0
Leechers: 11
Completed: 0
Downloaded: 31
Size: 786.14 MB
Language: English English
18+ In A Relationship 2018 UNCENSORED Movies HDRip x264 5.1 with Sample ☻rDX☻

:clapSCREEN SHOTS & POSTER::clap

https://iphonehosting.eu/2018/11/a/mortgage/index.html
https://iphonehosting.eu/2018/11/a/mortgage/1.html
https://iphonehosting.eu/2018/11/a/mortgage/2.html
https://iphonehosting.eu/2018/11/a/mortgage/3.html
https://iphonehosting.eu/2018/11/a/mortgage/4.html
https://iphonehosting.eu/2018/11/a/mortgage/5.html
https://iphonehosting.eu/2018/11/a/mortgage/6.html
https://iphonehosting.eu/2018/11/a/mortgage/7.html
https://iphonehosting.eu/2018/11/a/mortgage/8.html
https://iphonehosting.eu/2018/11/a/mortgage/9.html
https://iphonehosting.eu/2018/11/a/mortgage/10.html


File size                                : 775 MiB
Duration                                 : 1 h 31 min
Overall bit rate mode                    : Constant
Overall bit rate                         : 1 180 kb/s
Movie name                               : 18+ In A Relationship 2018 UNCENSORED Movies HDRip x264 5.1 ☻rDX☻

Video
ID                                       : 2
Format                                   : AVC
Format/Info                              : Advanced Video Codec
Format profile                           : [email protected]
Format settings, CABAC                   : Yes
Format settings, ReFrames                : 2 frames
Format settings, GOP                     : M=1, N=12
Codec ID                                 : V_MPEG4/ISO/AVC
Duration                                 : 1 h 31 min
Bit rate mode                            : Constant
Bit rate                                 : 989 kb/s
Width                                    : 720 pixels
Height                                   : 384 pixels
Display aspect ratio                     : 1.85:1
Frame rate mode                          : Constant
Frame rate                               : 23.976 (24000/1001) FPS
Color space                              : YUV
Chroma subsampling                       : 4:2:0
Bit depth                                : 8 bits
Scan type                                : Progressive
Bits/(Pixel*Frame)                       : 0.149
Stream size                              : 633 MiB (82%)
Title                                    : ☻rDX☻
Language                                 : English
Default                                  : Yes
Forced                                   : No

Audio
ID                                       : 1
Format                                   : AC-3
Format/Info                              : Audio Coding 3
Mode extension                           : CM (complete main)
Format settings, Endianness              : Big
Codec ID                                 : A_AC3
Duration                                 : 1 h 31 min
Bit rate mode                            : Constant
Bit rate                                 : 192 kb/s
Channel(s)                               : 6 channels
Channel positions                        : Front: L C R, Side: L R, LFE
Sampling rate                            : 44.1 kHz
Frame rate                               : 28.711 FPS (1536 spf)
Bit depth                                : 16 bits
Compression mode                         : Lossy
Stream size                              : 126 MiB (16%)
Title                                    : ☻rDX☻
Default                                  : Yes
Forced                                   : No

https://www.imdb.com/title/tt6676028/
File Name: Size:
18+ In A Relationship 2018 UNCENSORED Movies HDRip x264 5.1 ☻rDX☻.mkv774.83 MB
Sample ~ 18+ In A Relationship 2018 UNCENSORED Movies HDRip x264 5.1 ☻rDX☻.mkv11.31 MB
In a Relationship
Title: In a Relationship
Rated: 6.8 by 4 People.
A.K.A : In a Relationship
Released: 2018-11-09
Runtime: Minutes
Genre: 10749
Language: en
Budget: USD
Plot: Long-term couple Owen and Hallie are breaking up—or maybe not?—and just as their relationship reaches a turning point, Matt and Willa embark on a romance of their own.
TMDB
TrackersSeedersLeechersCompleted
udp://tracker.coppersurfer.tk:6969/announce0110
Request Reseed
Torrent Hash: E28B9DD6EB033D69C4EC911677C6C2DBEEF8D51E
Not Yet Rated (Log in to rate it)
No comments still posted


Embed & Sharing


Login


Email:
Password:
[Signup]
[Recover Account]

Latest Forum


Author : cRAYzprivateer
Subject :Alphabetical Body Parts Threa...
Last Replies :  Drax2099
On : 2018-11-16 20:51:32

Author : cRAYzprivateer
Subject :Rhyme Time Game
Last Replies :  Drax2099
On : 2018-11-16 20:50:36

Author : Chelsea
Subject :A-Z Words Ending in ST
Last Replies :  Drax2099
On : 2018-11-16 20:47:07

Author : cRAYzprivateer
Subject :A-Z Occupations Game V1
Last Replies :  Drax2099
On : 2018-11-16 20:46:07

Author : Chelsea
Subject :A-Z Of Words Ending in SS
Last Replies :  Drax2099
On : 2018-11-16 20:44:56

Author : jammie
Subject :A-Z Of Football Teams
Last Replies :  Drax2099
On : 2018-11-16 20:42:29

Author : Lone_Wolf
Subject :Answer the question above you.
Last Replies :  Drax2099
On : 2018-11-16 20:39:20

Author : miokdonated
Subject :World Wide Release/WWRG (Page ...
Last Replies :  Deep61
On : 2018-11-16 20:29:29

Author : Deep61
Subject :Deep61's Soaps,TV,and E books ...
Last Replies :  Deep61
On : 2018-11-16 20:29:24

Author : cRAYzprivateer
Subject :Alphabetical 4 Letter Words V2
Last Replies :  Drax2099
On : 2018-11-16 20:27:45

Author : cRAYzprivateer
Subject :A-Z Words Ending in "TION"
Last Replies :  Drax2099
On : 2018-11-16 20:27:06

Author : GodAndUlsterdonated
Subject :A-Z Post a word that ends with...
Last Replies :  Drax2099
On : 2018-11-16 20:19:40


Pinned Threads


Author : Deep61
Subject :2018 NASCAR Monster Energy Cup...
Last Replies :  skunklove
On : 2018-11-14 07:45:44

Author : Chelsea
Subject :Trick Math Questions Competiti...
Last Replies :  Jpwb8
On : 2018-11-15 13:22:02

Author : TestNTune
Subject :WWT Site Update Thread
Last Replies :  skunklove
On : 2018-11-15 10:12:05

Author : Gear Shifterdonated
Subject :WWT 2018/2019 NFL Competition
Last Replies :  steelman8713
On : 2018-11-15 02:37:55

Author : Chelsea
Subject :Guess the Movie!
Last Replies :  Gear Shifterdonated
On : 2018-11-14 06:20:33

Author : Gear Shifterdonated
Subject :NFL 2019 Super Bowl Competitio...
Last Replies :  Reaper
On : 2018-11-14 05:20:41

Author : Csabaxb
Subject :Can You Guess The Band
Last Replies :  Gear Shifterdonated
On : 2018-11-14 06:21:23



Blog




Site Friends