Torrent Details For "18+ Outlaw King 2018 UNCENSORED Movies HDRip x264 5.1 ESubs with Sample ☻rDX☻"

18+ Outlaw King 2018 UNCENSORED Movies HDRip x264 5.1 ESubs with Sample ☻rDX☻

Uploader's RSS Magnet Download Alt Download Safe Download Fast Download


Title: 18+ Outlaw King 2018 UNCENSORED Movies HDRip x264 5.1 ESubs with Sample ☻rDX☻
Category: Movies > Action
Uploader:

Uploaded by rdx*16320

Date:

Uploaded on: Nov 09th, 2018

Seeders: 3
Leechers: 34
Completed: 0
Downloaded: 39
Size: 822.91 MB
Language: English English
18+ Outlaw King 2018 UNCENSORED Movies HDRip x264 5.1 ESubs with Sample ☻rDX☻

:clapSCREEN SHOTS & POSTER::clap

https://iphonehosting.eu/2018/11/a/motel/index.html
https://iphonehosting.eu/2018/11/a/motel/1.html
https://iphonehosting.eu/2018/11/a/motel/2.html
https://iphonehosting.eu/2018/11/a/motel/3.html
https://iphonehosting.eu/2018/11/a/motel/4.html
https://iphonehosting.eu/2018/11/a/motel/5.html
https://iphonehosting.eu/2018/11/a/motel/6.html
https://iphonehosting.eu/2018/11/a/motel/7.html
https://iphonehosting.eu/2018/11/a/motel/8.html
https://iphonehosting.eu/2018/11/a/motel/9.html
https://iphonehosting.eu/2018/11/a/motel/10.html


File size                                : 816 MiB
Duration                                 : 2 h 1 min
Overall bit rate                         : 938 kb/s
Movie name                               : 18+ Outlaw King 2018 UNCENSORED Movies HDRip x264 5.1 ESubs ☻rDX☻

Video
ID                                       : 2
Format                                   : AVC
Format/Info                              : Advanced Video Codec
Format profile                           : [email protected]
Format settings, CABAC                   : Yes
Format settings, ReFrames                : 2 frames
Format settings, GOP                     : M=1, N=12
Codec ID                                 : V_MPEG4/ISO/AVC
Duration                                 : 2 h 1 min
Bit rate mode                            : Constant
Bit rate                                 : 747 kb/s
Width                                    : 720 pixels
Height                                   : 304 pixels
Display aspect ratio                     : 2.35:1
Frame rate mode                          : Constant
Frame rate                               : 24.000 FPS
Color space                              : YUV
Chroma subsampling                       : 4:2:0
Bit depth                                : 8 bits
Scan type                                : Progressive
Bits/(Pixel*Frame)                       : 0.142
Stream size                              : 633 MiB (78%)
Title                                    : ☻rDX☻
Default                                  : Yes
Forced                                   : No

Audio
ID                                       : 1
Format                                   : AC-3
Format/Info                              : Audio Coding 3
Mode extension                           : CM (complete main)
Format settings, Endianness              : Big
Codec ID                                 : A_AC3
Duration                                 : 2 h 1 min
Bit rate mode                            : Constant
Bit rate                                 : 192 kb/s
Channel(s)                               : 6 channels
Channel positions                        : Front: L C R, Side: L R, LFE
Sampling rate                            : 44.1 kHz
Frame rate                               : 28.711 FPS (1536 spf)
Bit depth                                : 16 bits
Compression mode                         : Lossy
Stream size                              : 167 MiB (20%)
Title                                    : ☻rDX☻
Default                                  : Yes
Forced                                   : No

Text
ID                                       : 3
Format                                   : UTF-8
Codec ID                                 : S_TEXT/UTF8
Codec ID/Info                            : UTF-8 Plain Text
Title                                    : ☻rDX☻
Default                                  : Yes
Forced                                   : No

https://www.imdb.com/title/tt6679794/
File Name: Size:
18+ Outlaw King 2018 UNCENSORED Movies HDRip x264 5.1 ESubs ☻rDX☻.mkv816.23 MB
Sample ~ 18+ Outlaw King 2018 UNCENSORED Movies HDRip x264 5.1 ESubs ☻rDX☻.mkv6.68 MB
Outlaw King
Title: Outlaw King
Rated: 7.4 by 148 People.
A.K.A : Outlaw King
Released: 2018-09-06
Runtime: Minutes
Genre: 28, 18, 36
Language: en
Budget: USD
Plot: Forced into exile by the English after being crowned King of Scotland, legendary warrior Robert the Bruce fights to reclaim the throne.
TMDB
TrackersSeedersLeechersCompleted
udp://tracker.coppersurfer.tk:6969/announce3340
Torrent Hash: 6484219A9314E074D17E82CAE9772493D3C9FC32
Not Yet Rated (Log in to rate it)
No comments still posted


Embed & Sharing


Login


Email:
Password:
[Signup]
[Recover Account]

Latest Forum


Author : Stewart
Subject :Random Animal Image Thread
Last Replies :  Reaper
On : 2018-11-17 05:06:58

Author : dascubadude
Subject :Show us a trailer
Last Replies :  Chelsea
On : 2018-11-17 04:58:40

Author : cRAYzprivateer
Subject :Stupid Sign Thread
Last Replies :  Chelsea
On : 2018-11-17 04:51:28

Author : Chelsea
Subject :Count Down to Zero! V1
Last Replies :  Chelsea
On : 2018-11-17 04:48:33

Author : Deep61
Subject :The Numbers game V4
Last Replies :  Chelsea
On : 2018-11-17 04:46:30

Author : Beowulf
Subject :Count to 150! Before it gets r...
Last Replies :  Chelsea
On : 2018-11-17 04:43:33

Author : cRAYzprivateer
Subject :A-Z Math Term Thread
Last Replies :  Chelsea
On : 2018-11-17 04:41:58

Author : cRAYzprivateer
Subject :A-Z Words Ending in "LY"
Last Replies :  Chelsea
On : 2018-11-17 04:40:30

Author : GodAndUlsterdonated
Subject :Post a flag image starting wit...
Last Replies :  Chelsea
On : 2018-11-17 04:37:23

Author : cRAYzprivateer
Subject :Phrase Connect
Last Replies :  Chelsea
On : 2018-11-17 04:34:00

Author : cRAYzprivateer
Subject :Name- Place- Animal- Thing
Last Replies :  Chelsea
On : 2018-11-17 04:32:27

Author : cRAYzprivateer
Subject :Alphabet Soup
Last Replies :  Chelsea
On : 2018-11-17 04:31:23


Pinned Threads


Author : Deep61
Subject :2018 NASCAR Monster Energy Cup...
Last Replies :  skunklove
On : 2018-11-14 07:45:44

Author : Chelsea
Subject :Trick Math Questions Competiti...
Last Replies :  Jpwb8
On : 2018-11-15 13:22:02

Author : TestNTune
Subject :WWT Site Update Thread
Last Replies :  skunklove
On : 2018-11-15 10:12:05

Author : Gear Shifterdonated
Subject :WWT 2018/2019 NFL Competition
Last Replies :  steelman8713
On : 2018-11-15 02:37:55

Author : Chelsea
Subject :Guess the Movie!
Last Replies :  Gear Shifterdonated
On : 2018-11-14 06:20:33

Author : Gear Shifterdonated
Subject :NFL 2019 Super Bowl Competitio...
Last Replies :  Reaper
On : 2018-11-14 05:20:41

Author : Csabaxb
Subject :Can You Guess The Band
Last Replies :  Gear Shifterdonated
On : 2018-11-14 06:21:23



Blog




Site Friends




Latest Torrents
Torrents NameSizeSLAge
Room.104.S02E03.WEB.H264-MEMENTO[ettv]
       0


by ettv in TV > SD x264 x265
223.50 MB 0 0 22 mins ago
Real.Time.With.Bill.Maher.2018.11.16.WEBRip.x264-PBS[ettv]
       0


by ettv in TV > SD x264 x265
329.66 MB 142 322 24 mins ago
Becoming by Michelle Obama (.epub)(.azw3) [True/HQ]
       0


by NawalaWWT in Books > E-Books
212.31 MB 7 48 31 mins ago
The Mythology Book: Big Ideas Simply Explained by DK (.epub)
       0


by NawalaWWT in Books > E-Books
265.12 MB 472 189 32 mins ago
Kalina Ryu - Happy Endings (PureMature)
       0


by RH13 in XXX > HD Video
575.29 MB 0 32 33 mins ago
Van.Helsing.S03E07.WEB.x264-TBS[ettv]
       0


by ettv in TV > SD x264 x265
604.10 MB 129 605 34 mins ago
Van.Helsing.S03E07.720p.WEB.x264-TBS[ettv]
       0


by EtHD in TV > HD
825.83 MB 148 281 34 mins ago
Ivy Wolfe - Sugar (MissaX).mp4
       0


by RH13 in XXX > HD Video
492.81 MB 0 22 34 mins ago
Gianna Dior - Tantalizing Camo (Exotic4k)
       0


by RH13 in XXX > HD Video
247.24 MB 1 48 35 mins ago
Dropping Loads #3 [Platinum X Pictures] (2009)
       0


by RH13 in XXX > Video
1.62 GB 0 36 37 mins ago