Torrent Details For "Laila Majnu 2018 Hindi 720p HDRip x264 AAC { TaRa }.mkv"

Laila Majnu 2018 Hindi 720p HDRip x264 AAC { TaRa }.mkv

Uploader's RSS Magnet Download Alt Download Safe Download Fast Download


Title: Laila Majnu 2018 Hindi 720p HDRip x264 AAC { TaRa }.mkv
Category: Movies > Bollywood
Uploader:

Uploaded by SkTaRa*734

Date:

Uploaded on: Nov 09th, 2018

Seeders: 456
Leechers: 414
Completed: 1248
Downloaded: 12
Size: 1.29 GB
Language: Hindi Hindi

Laila Majnu 2018 Hindi 720p HDRip x264 AAC { TaRa }.mkv


===================================================================
General
Complete name               : Laila Majnu 2018 Hindi 720p HDRip x264 AAC { TaRa }.mkv
Format                      : Matroska
Format version              : Version 4
File size                   : 1.29 GiB
Duration                    : 2 h 12 min
Overall bit rate            : 1 393 kb/s
===================================================================
Video
ID                          : 1
Format                      : AVC
Format/Info                 : Advanced Video Codec
Format profile              : [email protected]
Format settings             : CABAC / 4 Ref Frames
Format settings, CABAC      : Yes
Format settings, ReFrames   : 4 frames
Codec ID                    : V_MPEG4/ISO/AVC
Duration                    : 2 h 12 min
Bit rate                    : 1 266 kb/s
Width                       : 1 280 pixels
Height                      : 544 pixels
Display aspect ratio        : 2.35:1
Frame rate mode             : Constant
Frame rate                  : 25.000 FPS
Color space                 : YUV
Chroma subsampling          : 4:2:0
Bit depth                   : 8 bits
Scan type                   : Progressive
Bits/(Pixel*Frame)          : 0.073
Stream size                 : 1.17 GiB (91%)
Title                       : .....::::: TaRa :::::.....
Language                    : Hindi
Default                     : Yes
Forced                      : No
===================================================================
Audi=
ID                          : 2
Format                      : AAC LC
Format/Info                 : Advanced Audio Codec Low Complexity
Codec ID                    : A_AAC-2
Duration                    : 2 h 12 min
Bit rate                    : 125 kb/s
Channel(s)                  : 2 channels
Channel layout              : L R
Sampling rate               : 48.0 kHz
Frame rate                  : 46.875 FPS (1024 SPF)
Compression mode            : Lossy
Delay relative to video     : -21 ms
Stream size                 : 118 MiB (9%)
Title                       : .....::::: TaRa :::::.....
Language                    : Hindi
Default                     : Yes
Forced                      : No
===================================================================







































File Name: Size:
778299a1066c4cd2a588d7235c6603ee.md.jpg138.99 kB
Laila Majnu 2018 Hindi 720p HDRip x264 AAC { TaRa }.mkv1.29 GB
Laila-Majnu-644x362.jpg47.83 kB
Torrent TaRa Digital Team PC Info.nfo6.53 kB
Torrent TaRa Digital Team.txt639.00 B
TrackersSeedersLeechersCompleted
udp://tracker.coppersurfer.tk:6969/announce4564141,248
Torrent Hash: E2053A49BBD829D695B79B9B8FFAB3FAC54DE01D
Not Yet Rated (Log in to rate it)
No comments still posted

Related Torrents

Torrents NameSizeSLAge
Laila Majnu (2018) HDRip [MovieOW]
       0


by TiaeoChoa in Movies > Bollywood
2.42 GB 14 29 2 days ago
Laila Majnu 2018 Hindi 720p WEBRip x264 AAC-LOKiHD
       0


by LOKI in Movies > Bollywood
1.03 GB 15 31 1 wk ago
Laila Majnu (2018) Hindi 720p HDRip x264 AAC - Downloadhub
       0


by downloadhub in Movies > Bollywood
1.01 GB 6 81 1 wk ago


Embed & Sharing


Login


Email:
Password:
[Signup]
[Recover Account]

Latest Forum


Author : Tipple
Subject :Request Uploader Status Here
Last Replies :  Csabaxb
On : 2018-11-17 18:21:10

Author : Beowulf
Subject :Happy Birthday Brulix.
Last Replies :  Deep61
On : 2018-11-17 18:12:23

Author : miokdonated
Subject :Alphabetical Boys Name Game V3...
Last Replies :  Beowulf
On : 2018-11-17 18:05:24

Author : Deep61
Subject :Complete Uploading Rules Inclu...
Last Replies :  miokdonated
On : 2018-11-17 17:56:29

Author : cRAYzprivateer
Subject :Alphabetical Girls Name Game V...
Last Replies :  Beowulf
On : 2018-11-17 17:52:52

Author : Stewart
Subject :Sci - Fi Random Image Thread
Last Replies :  Beowulf
On : 2018-11-17 17:32:59

Author : Stewart
Subject :Random Animal Image Thread
Last Replies :  Beowulf
On : 2018-11-17 17:29:27

Author : Nemesis43
Subject :Comic Request Thread v08
Last Replies :  astralopitecus
On : 2018-11-17 17:03:38

Author : Tipple
Subject :Which TV Show Are You Watching...
Last Replies :  Csabaxb
On : 2018-11-17 16:24:28

Author : miokdonated
Subject :World Wide Release/WWRG (Page ...
Last Replies :  miokdonated
On : 2018-11-17 16:10:04


Pinned Threads


Author : Deep61
Subject :2018 NASCAR Monster Energy Cup...
Last Replies :  skunklove
On : 2018-11-14 07:45:44

Author : Chelsea
Subject :Trick Math Questions Competiti...
Last Replies :  Jpwb8
On : 2018-11-15 13:22:02

Author : TestNTune
Subject :WWT Site Update Thread
Last Replies :  skunklove
On : 2018-11-15 10:12:05

Author : Gear Shifterdonated
Subject :WWT 2018/2019 NFL Competition
Last Replies :  steelman8713
On : 2018-11-15 02:37:55

Author : Chelsea
Subject :Guess the Movie!
Last Replies :  Gear Shifterdonated
On : 2018-11-14 06:20:33

Author : Gear Shifterdonated
Subject :NFL 2019 Super Bowl Competitio...
Last Replies :  Reaper
On : 2018-11-14 05:20:41

Author : Csabaxb
Subject :Can You Guess The Band
Last Replies :  Gear Shifterdonated
On : 2018-11-14 06:21:23



Blog




Site Friends