Torrent Details For "This Is Our Christmas 2018 Movies HDRip x264 5.1 with Sample ☻rDX☻"

This Is Our Christmas 2018 Movies HDRip x264 5.1 with Sample ☻rDX☻

Uploader's RSS Magnet Download Alt Download Safe Download Fast Download


Title: This Is Our Christmas 2018 Movies HDRip x264 5.1 with Sample ☻rDX☻
Category: Movies > Family
Uploader:

Uploaded by rdx*16378

Date:

Uploaded on: Nov 09th, 2018

Seeders: 0
Leechers: 22
Completed: 0
Downloaded: 7
Size: 766.83 MB
Language: English English
This Is Our Christmas 2018 Movies HDRip x264 5.1 with Sample ☻rDX☻

:clapSCREEN SHOTS & POSTER::clap

https://iphonehosting.eu/2018/11/a/namecheap/index.html
https://iphonehosting.eu/2018/11/a/namecheap/1.html
https://iphonehosting.eu/2018/11/a/namecheap/2.html
https://iphonehosting.eu/2018/11/a/namecheap/3.html
https://iphonehosting.eu/2018/11/a/namecheap/4.html
https://iphonehosting.eu/2018/11/a/namecheap/5.html
https://iphonehosting.eu/2018/11/a/namecheap/6.html
https://iphonehosting.eu/2018/11/a/namecheap/7.html
https://iphonehosting.eu/2018/11/a/namecheap/8.html
https://iphonehosting.eu/2018/11/a/namecheap/9.html
https://iphonehosting.eu/2018/11/a/namecheap/10.html


File size                                : 759 MiB
Duration                                 : 1 h 19 min
Overall bit rate mode                    : Constant
Overall bit rate                         : 1 330 kb/s
Movie name                               : This Is Our Christmas 2018 Movies HDRip x264 5.1 ☻rDX☻

Video
ID                                       : 2
Format                                   : AVC
Format/Info                              : Advanced Video Codec
Format profile                           : [email protected]
Format settings, CABAC                   : Yes
Format settings, ReFrames                : 2 frames
Format settings, GOP                     : M=1, N=12
Codec ID                                 : V_MPEG4/ISO/AVC
Duration                                 : 1 h 19 min
Bit rate mode                            : Constant
Bit rate                                 : 1 139 kb/s
Width                                    : 720 pixels
Height                                   : 400 pixels
Display aspect ratio                     : 16:9
Frame rate mode                          : Constant
Frame rate                               : 23.976 FPS
Color space                              : YUV
Chroma subsampling                       : 4:2:0
Bit depth                                : 8 bits
Scan type                                : Progressive
Bits/(Pixel*Frame)                       : 0.165
Stream size                              : 634 MiB (84%)
Title                                    : ☻rDX☻
Default                                  : Yes
Forced                                   : No

Audio
ID                                       : 1
Format                                   : AC-3
Format/Info                              : Audio Coding 3
Mode extension                           : CM (complete main)
Format settings, Endianness              : Big
Codec ID                                 : A_AC3
Duration                                 : 1 h 19 min
Bit rate mode                            : Constant
Bit rate                                 : 192 kb/s
Channel(s)                               : 6 channels
Channel positions                        : Front: L C R, Side: L R, LFE
Sampling rate                            : 44.1 kHz
Frame rate                               : 28.711 FPS (1536 spf)
Bit depth                                : 16 bits
Compression mode                         : Lossy
Stream size                              : 110 MiB (14%)
Title                                    : ☻rDX☻
Default                                  : Yes
Forced                                   : No

https://www.imdb.com/title/tt6014166/
File Name: Size:
Sample ~ This Is Our Christmas 2018 Movies HDRip x264 5.1 ☻rDX☻.mkv8.01 MB
This Is Our Christmas 2018 Movies HDRip x264 5.1 ☻rDX☻.mkv758.82 MB
This Is Our Christmas
Title: This Is Our Christmas
Rated: 0 by 3 People.
A.K.A : This Is Our Christmas
Released: 2018-11-08
Runtime: Minutes
Genre: 18
Language: en
Budget: USD
Plot: A sequel to the popular movie, Beverly Hills Christmas that was shown on UP TV during Christmas 2015 to more than 70 million viewers.
TMDB
TrackersSeedersLeechersCompleted
udp://tracker.coppersurfer.tk:6969/announce0220
Request Reseed
Torrent Hash: 2648E3E6E9D5E34D78E3DAC74D40081BFD6EF47A
Not Yet Rated (Log in to rate it)
No comments still posted


Embed & Sharing


Login


Email:
Password:
[Signup]
[Recover Account]

Latest Forum


Author : Chelsea
Subject :Hello Goodbye v2
Last Replies :  Csabaxb
On : 2018-11-17 19:21:00

Author : Tipple
Subject :Request Uploader Status Here
Last Replies :  Csabaxb
On : 2018-11-17 18:21:10

Author : Beowulf
Subject :Happy Birthday Brulix.
Last Replies :  Deep61
On : 2018-11-17 18:12:23

Author : miokdonated
Subject :Alphabetical Boys Name Game V3...
Last Replies :  Beowulf
On : 2018-11-17 18:05:24

Author : Deep61
Subject :Complete Uploading Rules Inclu...
Last Replies :  miokdonated
On : 2018-11-17 17:56:29

Author : cRAYzprivateer
Subject :Alphabetical Girls Name Game V...
Last Replies :  Beowulf
On : 2018-11-17 17:52:52

Author : Stewart
Subject :Sci - Fi Random Image Thread
Last Replies :  Beowulf
On : 2018-11-17 17:32:59

Author : Stewart
Subject :Random Animal Image Thread
Last Replies :  Beowulf
On : 2018-11-17 17:29:27

Author : Nemesis43
Subject :Comic Request Thread v08
Last Replies :  astralopitecus
On : 2018-11-17 17:03:38

Author : Tipple
Subject :Which TV Show Are You Watching...
Last Replies :  Csabaxb
On : 2018-11-17 16:24:28


Pinned Threads


Author : Deep61
Subject :2018 NASCAR Monster Energy Cup...
Last Replies :  skunklove
On : 2018-11-14 07:45:44

Author : Chelsea
Subject :Trick Math Questions Competiti...
Last Replies :  Jpwb8
On : 2018-11-15 13:22:02

Author : TestNTune
Subject :WWT Site Update Thread
Last Replies :  skunklove
On : 2018-11-15 10:12:05

Author : Gear Shifterdonated
Subject :WWT 2018/2019 NFL Competition
Last Replies :  steelman8713
On : 2018-11-15 02:37:55

Author : Chelsea
Subject :Guess the Movie!
Last Replies :  Gear Shifterdonated
On : 2018-11-14 06:20:33

Author : Gear Shifterdonated
Subject :NFL 2019 Super Bowl Competitio...
Last Replies :  Reaper
On : 2018-11-14 05:20:41

Author : Csabaxb
Subject :Can You Guess The Band
Last Replies :  Gear Shifterdonated
On : 2018-11-14 06:21:23



Blog




Site Friends