Torrent Details For "Thugs Of Hindostan 2018 Hindi Movies PDVDRip x264 Clean Audio AAC New Source with Sample ☻rDX☻"

Thugs Of Hindostan 2018 Hindi Movies PDVDRip x264 Clean Audio AAC New Source with Sample ☻rDX☻

Uploader's RSS Magnet Download Alt Download Safe Download Fast Download


Title: Thugs Of Hindostan 2018 Hindi Movies PDVDRip x264 Clean Audio AAC New Source with Sample ☻rDX☻
Category: Movies > Bollywood
Uploader:

Uploaded by rdx*16378

Date:

Uploaded on: Nov 09th, 2018

Seeders: 2
Leechers: 119
Completed: 0
Downloaded: 74
Size: 724.78 MB
Language: Hindi Hindi
Thugs Of Hindostan 2018 Hindi Movies PDVDRip x264 Clean Audio AAC New Source with Sample ☻rDX☻

:clapSCREEN SHOTS & POSTER::clap

https://iphonehosting.eu/2018/11/a/offline/index.html
https://iphonehosting.eu/2018/11/a/offline/1.html
https://iphonehosting.eu/2018/11/a/offline/2.html
https://iphonehosting.eu/2018/11/a/offline/3.html
https://iphonehosting.eu/2018/11/a/offline/4.html
https://iphonehosting.eu/2018/11/a/offline/5.html
https://iphonehosting.eu/2018/11/a/offline/6.html
https://iphonehosting.eu/2018/11/a/offline/7.html
https://iphonehosting.eu/2018/11/a/offline/8.html
https://iphonehosting.eu/2018/11/a/offline/9.html
https://iphonehosting.eu/2018/11/a/offline/10.html


File size                                : 717 MiB
Duration                                 : 2 h 34 min
Overall bit rate                         : 647 kb/s
Movie name                               : Thugs Of Hindostan 2018 Hindi Movies PDVDRip x264 Clean Audio AAC New Source ☻rDX☻

Video
ID                                       : 2
Format                                   : AVC
Format/Info                              : Advanced Video Codec
Format profile                           : [email protected]
Format settings, CABAC                   : Yes
Format settings, ReFrames                : 4 frames
Codec ID                                 : V_MPEG4/ISO/AVC
Duration                                 : 2 h 34 min
Bit rate                                 : 548 kb/s
Width                                    : 720 pixels
Height                                   : 288 pixels
Display aspect ratio                     : 2.500
Frame rate mode                          : Constant
Frame rate                               : 25.000 FPS
Color space                              : YUV
Chroma subsampling                       : 4:2:0
Bit depth                                : 8 bits
Scan type                                : Progressive
Bits/(Pixel*Frame)                       : 0.106
Stream size                              : 596 MiB (83%)
Title                                    : ☻rDX☻
Writing library                          : x264

Audio
ID                                       : 1
Format                                   : MPEG Audio
Format version                           : Version 2
Format profile                           : Layer 3
Mode                                     : Joint stereo
Mode extension                           : MS Stereo
Codec ID                                 : A_MPEG/L3
Codec ID/Hint                            : MP3
Duration                                 : 2 h 34 min
Bit rate mode                            : Constant
Bit rate                                 : 96.0 kb/s
Channel(s)                               : 2 channels
Sampling rate                            : 22.05 kHz
Compression mode                         : Lossy
Stream size                              : 106 MiB (15%)
Title                                    : ☻rDX☻
Writing library                          : LAME3.99.5
Language                                 : English
Default                                  : Yes
Forced                                   : No

https://www.imdb.com/title/tt5970844/
File Name: Size:
Sample ~ Thugs Of Hindostan 2018 Hindi Movies PDVDRip x264 Clean Audio AAC New Source ☻rDX☻.mkv8.10 MB
Thugs Of Hindostan 2018 Hindi Movies PDVDRip x264 Clean Audio AAC New Source ☻rDX☻.mkv716.67 MB
Thugs of Hindostan
Title: Thugs of Hindostan
Rated: 5 by 10 People.
A.K.A : Thugs of Hindostan
Released: 2018-11-07
Runtime: Minutes
Genre: 28, 12, 36
Language: hi
Budget: USD
Plot: After the British company’s officer Clive takes over the kingdom of Mirza, Princess Zafira and Khudabaksh aka Azaad form a band of rebel pirates who swear to defeat the English officer and win their freedom back. The British Company in return, hire the wily thug Firangi track Azaad’s gang and thwart his plans.
TMDB
TrackersSeedersLeechersCompleted
udp://tracker.coppersurfer.tk:6969/announce21190
Torrent Hash: 2AB274DF5E994719241547829D559E0A73B36236
Not Yet Rated (Log in to rate it)
No comments still posted

Related Torrents


Embed & Sharing


Login


Email:
Password:
[Signup]
[Recover Account]

Latest Forum


Author : Chelsea
Subject :Hello Goodbye v2
Last Replies :  Csabaxb
On : 2018-11-17 19:21:00

Author : Tipple
Subject :Request Uploader Status Here
Last Replies :  Csabaxb
On : 2018-11-17 18:21:10

Author : Beowulf
Subject :Happy Birthday Brulix.
Last Replies :  Deep61
On : 2018-11-17 18:12:23

Author : miokdonated
Subject :Alphabetical Boys Name Game V3...
Last Replies :  Beowulf
On : 2018-11-17 18:05:24

Author : Deep61
Subject :Complete Uploading Rules Inclu...
Last Replies :  miokdonated
On : 2018-11-17 17:56:29

Author : cRAYzprivateer
Subject :Alphabetical Girls Name Game V...
Last Replies :  Beowulf
On : 2018-11-17 17:52:52

Author : Stewart
Subject :Sci - Fi Random Image Thread
Last Replies :  Beowulf
On : 2018-11-17 17:32:59

Author : Stewart
Subject :Random Animal Image Thread
Last Replies :  Beowulf
On : 2018-11-17 17:29:27

Author : Nemesis43
Subject :Comic Request Thread v08
Last Replies :  astralopitecus
On : 2018-11-17 17:03:38

Author : Tipple
Subject :Which TV Show Are You Watching...
Last Replies :  Csabaxb
On : 2018-11-17 16:24:28


Pinned Threads


Author : Deep61
Subject :2018 NASCAR Monster Energy Cup...
Last Replies :  skunklove
On : 2018-11-14 07:45:44

Author : Chelsea
Subject :Trick Math Questions Competiti...
Last Replies :  Jpwb8
On : 2018-11-15 13:22:02

Author : TestNTune
Subject :WWT Site Update Thread
Last Replies :  skunklove
On : 2018-11-15 10:12:05

Author : Gear Shifterdonated
Subject :WWT 2018/2019 NFL Competition
Last Replies :  steelman8713
On : 2018-11-15 02:37:55

Author : Chelsea
Subject :Guess the Movie!
Last Replies :  Gear Shifterdonated
On : 2018-11-14 06:20:33

Author : Gear Shifterdonated
Subject :NFL 2019 Super Bowl Competitio...
Last Replies :  Reaper
On : 2018-11-14 05:20:41

Author : Csabaxb
Subject :Can You Guess The Band
Last Replies :  Gear Shifterdonated
On : 2018-11-14 06:21:23



Blog




Site Friends