Torrent Details For "Thugs of Hindostan 2018 Hindi 720p PRE-DVDRip x264 AAC { TaRa }.mkv"

Thugs of Hindostan 2018 Hindi 720p PRE-DVDRip x264 AAC { TaRa }.mkv

Uploader's RSS Magnet Download Alt Download Safe Download Fast Download


Title: Thugs of Hindostan 2018 Hindi 720p PRE-DVDRip x264 AAC { TaRa }.mkv
Category: Movies > Bollywood
Uploader:

Uploaded by SkTaRa*734

Date:

Uploaded on: Nov 08th, 2018

Seeders: 477
Leechers: 393
Completed: 6540
Downloaded: 139
Size: 1.33 GB
Language: Hindi Hindi

Thugs of Hindostan 2018 Hindi 720p PRE-DVDRip x264 AAC { TaRa }.mkv


===================================================================
General
Complete name               : Thugs of Hindostan 2018 Hindi 720p PRE-DVDRip x264 AAC { TaRa }.mkv
Format                      : Matroska
Format version              : Version 4
File size                   : 1.33 GiB
Duration                    : 2 h 30 min
Overall bit rate            : 1 264 kb/s
===================================================================
Video
ID                          : 1
Format                      : AVC
Format/Info                 : Advanced Video Codec
Format profile              : [email protected]
Format settings             : CABAC / 4 Ref Frames
Format settings, CABAC      : Yes
Format settings, ReFrames   : 4 frames
Codec ID                    : V_MPEG4/ISO/AVC
Duration                    : 2 h 30 min
Bit rate                    : 1 181 kb/s
Nominal bit rate            : 1 498 kb/s
Width                       : 1 280 pixels
Height                      : 544 pixels
Display aspect ratio        : 2.35:1
Frame rate mode             : Variable
Frame rate                  : 23.976 (24000/1001) FPS
Color space                 : YUV
Chroma subsampling          : 4:2:0
Bit depth                   : 8 bits
Scan type                   : Progressive
Bits/(Pixel*Frame)          : 0.071
Stream size                 : 1.24 GiB (93%)
Title                       : .....::::: TaRa :::::.....
Language                    : Hindi
Default                     : Yes
Forced                      : No
===================================================================
Audio
ID                          : 2
Format                      : AAC LC
Format/Info                 : Advanced Audio Codec Low Complexity
Codec ID                    : A_AAC-2
Duration                    : 2 h 30 min
Bit rate                    : 80.3 kb/s
Channel(s)                  : 2 channels
Channel layout              : L R
Sampling rate               : 44.1 kHz
Frame rate                  : 43.066 FPS (1024 SPF)
Compression mode            : Lossy
Delay relative to video     : -23 ms
Stream size                 : 86.6 MiB (6%)
Title                       : .....::::: TaRa :::::.....
Language                    : Hindi
Default                     : Yes
Forced                      : No
===================================================================
































File Name: Size:
1541650008_who-were-thugs-hindostan.jpg117.44 kB
6361bd41e771c0a6bd0f04c560282bd7.jpg140.25 kB
Thugs of Hindostan 2018 Hindi 720p PRE-DVDRip x264 AAC { TaRa }.mkv1.33 GB
Torrent TaRa Digital Team PC Info.nfo6.53 kB
Torrent TaRa Digital Team.txt639.00 B
TrackersSeedersLeechersCompleted
udp://tracker.coppersurfer.tk:6969/announce4773936,540
Torrent Hash: F4863135F20A19713A6B5EE7F3EC5E3125C28B83
Not Yet Rated (Log in to rate it)
No comments still posted


Embed & Sharing


Login


Email:
Password:
[Signup]
[Recover Account]

Latest Forum


Author : Stewart
Subject :Random Animal Image Thread
Last Replies :  Reaper
On : 2018-11-17 05:06:58

Author : dascubadude
Subject :Show us a trailer
Last Replies :  Chelsea
On : 2018-11-17 04:58:40

Author : cRAYzprivateer
Subject :Stupid Sign Thread
Last Replies :  Chelsea
On : 2018-11-17 04:51:28

Author : Chelsea
Subject :Count Down to Zero! V1
Last Replies :  Chelsea
On : 2018-11-17 04:48:33

Author : Deep61
Subject :The Numbers game V4
Last Replies :  Chelsea
On : 2018-11-17 04:46:30

Author : Beowulf
Subject :Count to 150! Before it gets r...
Last Replies :  Chelsea
On : 2018-11-17 04:43:33

Author : cRAYzprivateer
Subject :A-Z Math Term Thread
Last Replies :  Chelsea
On : 2018-11-17 04:41:58

Author : cRAYzprivateer
Subject :A-Z Words Ending in "LY"
Last Replies :  Chelsea
On : 2018-11-17 04:40:30

Author : GodAndUlsterdonated
Subject :Post a flag image starting wit...
Last Replies :  Chelsea
On : 2018-11-17 04:37:23

Author : cRAYzprivateer
Subject :Phrase Connect
Last Replies :  Chelsea
On : 2018-11-17 04:34:00

Author : cRAYzprivateer
Subject :Name- Place- Animal- Thing
Last Replies :  Chelsea
On : 2018-11-17 04:32:27

Author : cRAYzprivateer
Subject :Alphabet Soup
Last Replies :  Chelsea
On : 2018-11-17 04:31:23


Pinned Threads


Author : Deep61
Subject :2018 NASCAR Monster Energy Cup...
Last Replies :  skunklove
On : 2018-11-14 07:45:44

Author : Chelsea
Subject :Trick Math Questions Competiti...
Last Replies :  Jpwb8
On : 2018-11-15 13:22:02

Author : TestNTune
Subject :WWT Site Update Thread
Last Replies :  skunklove
On : 2018-11-15 10:12:05

Author : Gear Shifterdonated
Subject :WWT 2018/2019 NFL Competition
Last Replies :  steelman8713
On : 2018-11-15 02:37:55

Author : Chelsea
Subject :Guess the Movie!
Last Replies :  Gear Shifterdonated
On : 2018-11-14 06:20:33

Author : Gear Shifterdonated
Subject :NFL 2019 Super Bowl Competitio...
Last Replies :  Reaper
On : 2018-11-14 05:20:41

Author : Csabaxb
Subject :Can You Guess The Band
Last Replies :  Gear Shifterdonated
On : 2018-11-14 06:21:23



Blog




Site Friends




Latest Torrents
Torrents NameSizeSLAge
New York Times Best Sellers-NON-Fiction-Nov.11,2018 [mobi]
       0


by twocows in Books > Non-fiction
114.17 MB 10 0 6 mins ago
MacGyver.2016.S03E08.WEB.x264-WEBSTER[ettv]
       0


by ettv in TV > SD x264 x265
487.54 MB 48 176 13 mins ago
MacGyver.2016.S03E08.720p.WEB.H264-METCON[ettv]
       0


by EtHD in TV > HD
1.36 GB 26 110 15 mins ago
Room.104.S02E03.WEB.H264-MEMENTO[ettv]
       0


by ettv in TV > SD x264 x265
223.50 MB 64 102 41 mins ago
Real.Time.With.Bill.Maher.2018.11.16.WEBRip.x264-PBS[ettv]
       0


by ettv in TV > SD x264 x265
329.66 MB 142 322 43 mins ago
Becoming by Michelle Obama (.epub)(.azw3) [True/HQ]
       0


by NawalaWWT in Books > E-Books
212.31 MB 7 48 50 mins ago
The Mythology Book: Big Ideas Simply Explained by DK (.epub)
       0


by NawalaWWT in Books > E-Books
265.12 MB 472 189 51 mins ago
Kalina Ryu - Happy Endings (PureMature)
       0


by RH13 in XXX > HD Video
575.29 MB 0 87 52 mins ago
Van.Helsing.S03E07.WEB.x264-TBS[ettv]
       0


by ettv in TV > SD x264 x265
604.10 MB 341 815 53 mins ago
Van.Helsing.S03E07.720p.WEB.x264-TBS[ettv]
       0


by EtHD in TV > HD
825.83 MB 213 203 53 mins ago