Torrent Details For "18+ Better Start Running 2018 Movies HDRip x264 5.1 with Sample ☻rDX☻"

18+ Better Start Running 2018 Movies HDRip x264 5.1 with Sample ☻rDX☻

Uploader's RSS Magnet Download Alt Download Safe Download Fast Download


Title: 18+ Better Start Running 2018 Movies HDRip x264 5.1 with Sample ☻rDX☻
Category: Movies > Mystery/Thriller
Uploader:

Uploaded by rdx*15292

Date:

Uploaded on: Oct 12th, 2018

Seeders: 2
Leechers: 6
Completed: 593
Downloaded: 19
Size: 917.66 MB
Language: English English
18+ Better Start Running 2018 Movies HDRip x264 5.1 with Sample ☻rDX☻

:clapSCREEN SHOTS & POSTER::clap

https://iphonehosting.eu/2018/10/premium/index.html
https://iphonehosting.eu/2018/10/premium/1.html
https://iphonehosting.eu/2018/10/premium/2.html
https://iphonehosting.eu/2018/10/premium/3.html
https://iphonehosting.eu/2018/10/premium/4.html
https://iphonehosting.eu/2018/10/premium/5.html
https://iphonehosting.eu/2018/10/premium/6.html
https://iphonehosting.eu/2018/10/premium/7.html
https://iphonehosting.eu/2018/10/premium/8.html
https://iphonehosting.eu/2018/10/premium/9.html
https://iphonehosting.eu/2018/10/premium/10.html


File size                                : 908 MiB
Duration                                 : 1 h 32 min
Overall bit rate mode                    : Constant
Overall bit rate                         : 1 374 kb/s
Movie name                               : Better Start Running 2018 Movies HDRip x264 5.1 ☻rDX☻

Video
ID                                       : 2
Format                                   : AVC
Format/Info                              : Advanced Video Codec
Format profile                           : [email protected]
Format settings, CABAC                   : Yes
Format settings, ReFrames                : 2 frames
Format settings, GOP                     : M=1, N=12
Codec ID                                 : V_MPEG4/ISO/AVC
Duration                                 : 1 h 32 min
Bit rate mode                            : Constant
Bit rate                                 : 991 kb/s
Width                                    : 720 pixels
Height                                   : 400 pixels
Display aspect ratio                     : 16:9
Frame rate mode                          : Constant
Frame rate                               : 23.976 FPS
Color space                              : YUV
Chroma subsampling                       : 4:2:0
Bit depth                                : 8 bits
Scan type                                : Progressive
Bits/(Pixel*Frame)                       : 0.144
Stream size                              : 636 MiB (70%)
Title                                    : ☻rDX☻
Default                                  : Yes
Forced                                   : No

Audio
ID                                       : 1
Format                                   : AC-3
Format/Info                              : Audio Coding 3
Mode extension                           : CM (complete main)
Format settings, Endianness              : Big
Codec ID                                 : A_AC3
Duration                                 : 1 h 32 min
Bit rate mode                            : Constant
Bit rate                                 : 384 kb/s
Channel(s)                               : 6 channels
Channel positions                        : Front: L C R, Side: L R, LFE
Sampling rate                            : 48.0 kHz
Frame rate                               : 31.250 FPS (1536 spf)
Bit depth                                : 16 bits
Compression mode                         : Lossy
Stream size                              : 254 MiB (28%)
Title                                    : ☻rDX☻
Default                                  : Yes
Forced                                   : No

https://www.imdb.com/title/tt2762662/
File Name: Size:
18+ Better Start Running 2018 Movies HDRip x264 5.1 ☻rDX☻.mkv907.80 MB
Sample ~ 18+ Better Start Running 2018 Movies HDRip x264 5.1 ☻rDX☻.mkv9.87 MB
Better Start Running
Title: Better Start Running
Rated: 10 by 2 People.
A.K.A : Better Start Running
Released: 2018-04-28
Runtime: Minutes
Genre: 35, 18
Language: en
Budget: USD
Plot: An eclectic band of misfits becomes an unlikely family as they take a wild journey in the name of love while on the run from an overzealous FBI duo who want them dead or alive - preferably dead.
TMDB
TrackersSeedersLeechersCompleted
udp://tracker.coppersurfer.tk:6969/announce26593
Torrent Hash: F42561AEB5931F2636D32140505183F966BB6C36
Not Yet Rated (Log in to rate it)
No comments still posted


Embed & Sharing


Login


Email:
Password:
[Signup]
[Recover Account]

Latest Forum


Author : smbd20009
Subject :Google DSCF image game
Last Replies :  miokdonated
On : 2018-10-19 21:47:39

Author : cRAYzprivateer
Subject :A-Z Names in the Bible Thread
Last Replies :  Deep61
On : 2018-10-19 21:46:14

Author : cRAYzprivateer
Subject :A-Z Famous Celebrities Thread ...
Last Replies :  Deep61
On : 2018-10-19 21:45:58

Author : cRAYzprivateer
Subject :U.S. Cities Thread
Last Replies :  Deep61
On : 2018-10-19 21:45:30

Author : cRAYzprivateer
Subject :Keep A Word- Drop A Word Game
Last Replies :  Deep61
On : 2018-10-19 21:45:04

Author : GodAndUlsterdonated
Subject :A-Z Post a word that ends with...
Last Replies :  Deep61
On : 2018-10-19 21:44:03

Author : Deep61
Subject :Last Letter Game V5
Last Replies :  Deep61
On : 2018-10-19 21:43:50

Author : miokdonated
Subject :World Wide Release/WWRG (Page ...
Last Replies :  miokdonated
On : 2018-10-19 21:29:23

Author : Nemesis43
Subject :Comic Request Thread v07
Last Replies :  chris181
On : 2018-10-19 21:09:23

Author : cRAYzprivateer
Subject :Word Morph Game
Last Replies :  cRAYzprivateer
On : 2018-10-19 21:07:44

Author : Beowulf
Subject :Happy Birthday Joel.
Last Replies :  cRAYzprivateer
On : 2018-10-19 21:02:00

Author : Beowulf
Subject :Happy Birthday KATZ.
Last Replies :  cRAYzprivateer
On : 2018-10-19 21:00:57


Pinned Threads


Author : Chelseaprivateer
Subject :It's Halloween Time!
Last Replies :  Gear Shifterdonated
On : 2018-10-19 07:55:54

Author : Deep61
Subject :2018 NASCAR Monster Energy Cup...
Last Replies :  thinwhiteduke
On : 2018-10-19 10:05:14

Author : Chelseaprivateer
Subject :Trick Math Questions Competiti...
Last Replies :  Csabaxb
On : 2018-10-19 16:58:51

Author : Tipple
Subject :WWT Site Update Thread
Last Replies :  Deep61
On : 2018-10-19 20:34:46

Author : Gear Shifterdonated
Subject :WWT 2018/2019 NFL Competition
Last Replies :  Deep61
On : 2018-10-18 23:22:45

Author : Chelseaprivateer
Subject :Guess the Movie!
Last Replies :  Csabaxb
On : 2018-10-19 16:52:37

Author : Gear Shifterdonated
Subject :NFL 2019 Super Bowl Competitio...
Last Replies :  Nemesis43
On : 2018-09-28 22:36:24



Blog




Site Friends





Poll


You must be logged in to view polls