Torrent Details For "Space Explorers 2018 Movies HDRip x264 AAC with Sample ☻rDX☻"

Space Explorers 2018 Movies HDRip x264 AAC with Sample ☻rDX☻

Uploader's RSS Magnet Download Alt Download Safe Download Fast Download


Title: Space Explorers 2018 Movies HDRip x264 AAC with Sample ☻rDX☻
Category: Movies > Animation
Uploader:

Uploaded by rdx*15292

Date:

Uploaded on: Oct 12th, 2018

Seeders: 5
Leechers: 29
Completed: 247
Downloaded: 9
Size: 705.94 MB
Language: English English
Space Explorers 2018 Movies HDRip x264 AAC with Sample ☻rDX☻

:clapSCREEN SHOTS & POSTER::clap

https://iphonehosting.eu/2018/10/purchase/index.html
https://iphonehosting.eu/2018/10/purchase/1.html
https://iphonehosting.eu/2018/10/purchase/2.html
https://iphonehosting.eu/2018/10/purchase/3.html
https://iphonehosting.eu/2018/10/purchase/4.html
https://iphonehosting.eu/2018/10/purchase/5.html
https://iphonehosting.eu/2018/10/purchase/6.html
https://iphonehosting.eu/2018/10/purchase/7.html
https://iphonehosting.eu/2018/10/purchase/8.html
https://iphonehosting.eu/2018/10/purchase/9.html
https://iphonehosting.eu/2018/10/purchase/10.html


File size                                : 695 MiB
Duration                                 : 1 h 17 min
Overall bit rate mode                    : Constant
Overall bit rate                         : 1 251 kb/s
Movie name                               : Space Explorers 2018 Movies HDRip x264 AAC ☻rDX☻

Video
ID                                       : 2
Format                                   : AVC
Format/Info                              : Advanced Video Codec
Format profile                           : [email protected]
Format settings, CABAC                   : Yes
Format settings, ReFrames                : 2 frames
Format settings, GOP                     : M=1, N=12
Codec ID                                 : V_MPEG4/ISO/AVC
Duration                                 : 1 h 17 min
Bit rate mode                            : Constant
Bit rate                                 : 1 188 kb/s
Width                                    : 720 pixels
Height                                   : 400 pixels
Display aspect ratio                     : 16:9
Frame rate mode                          : Constant
Frame rate                               : 23.976 (24000/1001) FPS
Color space                              : YUV
Chroma subsampling                       : 4:2:0
Bit depth                                : 8 bits
Scan type                                : Progressive
Bits/(Pixel*Frame)                       : 0.172
Stream size                              : 646 MiB (93%)
Title                                    : ☻rDX☻
Default                                  : Yes
Forced                                   : No

Audio
ID                                       : 1
Format                                   : MPEG Audio
Format version                           : Version 1
Format profile                           : Layer 3
Mode                                     : Joint stereo
Mode extension                           : MS Stereo
Codec ID                                 : A_MPEG/L3
Codec ID/Hint                            : MP3
Duration                                 : 1 h 17 min
Bit rate mode                            : Constant
Bit rate                                 : 64.0 kb/s
Channel(s)                               : 2 channels
Sampling rate                            : 44.1 kHz
Compression mode                         : Lossy
Stream size                              : 35.6 MiB (5%)
Title                                    : ☻rDX☻
Default                                  : Yes
Forced                                   : No

https://www.imdb.com/title/tt8426808/
File Name: Size:
Sample ~ Space Explorers 2018 Movies HDRip x264 AAC ☻rDX☻.mkv11.04 MB
Space Explorers 2018 Movies HDRip x264 AAC ☻rDX☻.mkv694.90 MB
Space Explorers
Title: Space Explorers
Rated: 0 by 0 People.
A.K.A : Space Explorers
Released: 2018-10-09
Runtime: Minutes
Genre: 16, 14, 10751
Language: en
Budget: USD
Plot: When space explorers Nick and Sammy are sent on a mission they race against time to save Earth's creatures and learn valuable lessons along the way.
TMDB
TrackersSeedersLeechersCompleted
udp://tracker.coppersurfer.tk:6969/announce529247
Torrent Hash: D795C03C44B0FFB6E0BBB4AD1A86D85A5AFB223C
Not Yet Rated (Log in to rate it)
No comments still posted

Related Torrents


Embed & Sharing


Login


Email:
Password:
[Signup]
[Recover Account]

Latest Forum


Author : miokdonated
Subject :World Wide Release/WWRG (Page ...
Last Replies :  miokdonated
On : 2018-10-19 21:29:23

Author : Nemesis43
Subject :Comic Request Thread v07
Last Replies :  chris181
On : 2018-10-19 21:09:23

Author : Deep61
Subject :Last Letter Game V5
Last Replies :  cRAYzprivateer
On : 2018-10-19 21:08:40

Author : GodAndUlsterdonated
Subject :A-Z Post a word that ends with...
Last Replies :  cRAYzprivateer
On : 2018-10-19 21:08:22

Author : cRAYzprivateer
Subject :Word Morph Game
Last Replies :  cRAYzprivateer
On : 2018-10-19 21:07:44

Author : cRAYzprivateer
Subject :Keep A Word- Drop A Word Game
Last Replies :  cRAYzprivateer
On : 2018-10-19 21:05:26

Author : cRAYzprivateer
Subject :U.S. Cities Thread
Last Replies :  cRAYzprivateer
On : 2018-10-19 21:04:10

Author : cRAYzprivateer
Subject :A-Z Famous Celebrities Thread ...
Last Replies :  cRAYzprivateer
On : 2018-10-19 21:03:36

Author : cRAYzprivateer
Subject :A-Z Names in the Bible Thread
Last Replies :  cRAYzprivateer
On : 2018-10-19 21:02:28

Author : Beowulf
Subject :Happy Birthday Joel.
Last Replies :  cRAYzprivateer
On : 2018-10-19 21:02:00

Author : Beowulf
Subject :Happy Birthday KATZ.
Last Replies :  cRAYzprivateer
On : 2018-10-19 21:00:57

Author : cRAYzprivateer
Subject :Alphabetical Flower Thread
Last Replies :  Deep61
On : 2018-10-19 20:46:46


Pinned Threads


Author : Chelseaprivateer
Subject :It's Halloween Time!
Last Replies :  Gear Shifterdonated
On : 2018-10-19 07:55:54

Author : Deep61
Subject :2018 NASCAR Monster Energy Cup...
Last Replies :  thinwhiteduke
On : 2018-10-19 10:05:14

Author : Chelseaprivateer
Subject :Trick Math Questions Competiti...
Last Replies :  Csabaxb
On : 2018-10-19 16:58:51

Author : Tipple
Subject :WWT Site Update Thread
Last Replies :  Deep61
On : 2018-10-19 20:34:46

Author : Gear Shifterdonated
Subject :WWT 2018/2019 NFL Competition
Last Replies :  Deep61
On : 2018-10-18 23:22:45

Author : Chelseaprivateer
Subject :Guess the Movie!
Last Replies :  Csabaxb
On : 2018-10-19 16:52:37

Author : Gear Shifterdonated
Subject :NFL 2019 Super Bowl Competitio...
Last Replies :  Nemesis43
On : 2018-09-28 22:36:24



Blog




Site Friends




Latest Torrents

Poll


You must be logged in to view polls