Torrent Details For "18+ Apostle 2018 Movies HDRip x264 5.1 with Sample ☻rDX☻"

18+ Apostle 2018 Movies HDRip x264 5.1 with Sample ☻rDX☻



Title: 18+ Apostle 2018 Movies HDRip x264 5.1 with Sample ☻rDX☻
Category: Movies > Mystery/Thriller
Uploader:

Uploaded by rdx*15254

Date:

Uploaded on: Oct 12th, 2018

Seeders: 11
Leechers: 8
Completed: 280
Downloaded: 7
Size: 1,005.52 MB
Language: English English
18+ Apostle 2018 Movies HDRip x264 5.1 with Sample ☻rDX☻

:clapSCREEN SHOTS & POSTER::clap

https://iphonehosting.eu/2018/10/quality/index.html
https://iphonehosting.eu/2018/10/quality/1.html
https://iphonehosting.eu/2018/10/quality/2.html
https://iphonehosting.eu/2018/10/quality/3.html
https://iphonehosting.eu/2018/10/quality/4.html
https://iphonehosting.eu/2018/10/quality/5.html
https://iphonehosting.eu/2018/10/quality/6.html
https://iphonehosting.eu/2018/10/quality/7.html
https://iphonehosting.eu/2018/10/quality/8.html
https://iphonehosting.eu/2018/10/quality/9.html
https://iphonehosting.eu/2018/10/quality/10.html


File size                                : 996 MiB
Duration                                 : 2 h 10 min
Overall bit rate mode                    : Constant
Overall bit rate                         : 1 071 kb/s
Movie name                               : 18+ Apostle 2018 Movies HDRip x264 5.1 ☻rDX☻

Video
ID                                       : 2
Format                                   : AVC
Format/Info                              : Advanced Video Codec
Format profile                           : [email protected]
Format settings, CABAC                   : Yes
Format settings, ReFrames                : 2 frames
Format settings, GOP                     : M=1, N=12
Codec ID                                 : V_MPEG4/ISO/AVC
Duration                                 : 2 h 10 min
Bit rate mode                            : Constant
Bit rate                                 : 688 kb/s
Width                                    : 720 pixels
Height                                   : 304 pixels
Display aspect ratio                     : 2.35:1
Frame rate mode                          : Constant
Frame rate                               : 24.000 FPS
Color space                              : YUV
Chroma subsampling                       : 4:2:0
Bit depth                                : 8 bits
Scan type                                : Progressive
Bits/(Pixel*Frame)                       : 0.131
Stream size                              : 619 MiB (62%)
Title                                    : ☻rDX☻
Default                                  : Yes
Forced                                   : No

Audio
ID                                       : 1
Format                                   : AC-3
Format/Info                              : Audio Coding 3
Mode extension                           : CM (complete main)
Format settings, Endianness              : Big
Codec ID                                 : A_AC3
Duration                                 : 2 h 10 min
Bit rate mode                            : Constant
Bit rate                                 : 384 kb/s
Channel(s)                               : 6 channels
Channel positions                        : Front: L C R, Side: L R, LFE
Sampling rate                            : 48.0 kHz
Frame rate                               : 31.250 FPS (1536 spf)
Bit depth                                : 16 bits
Compression mode                         : Lossy
Stream size                              : 357 MiB (36%)
Title                                    : ☻rDX☻
Default                                  : Yes
Forced                                   : No

https://www.imdb.com/title/tt6217306/
File Name: Size:
18+ Apostle 2018 Movies HDRip x264 5.1 ☻rDX☻.mkv995.93 MB
Sample ~ 18+ Apostle 2018 Movies HDRip x264 5.1 ☻rDX☻.mkv9.59 MB
Apostle
Title: Apostle
Rated: 6 by 87 People.
A.K.A : Apostle
Released: 2018-09-21
Runtime: Minutes
Genre: 14, 9648, 53
Language: en
Budget: USD
Plot: In 1905, a man travels to a remote island in search of his missing sister who has been kidnapped by a mysterious religious cult.
TMDB
TrackersSeedersLeechersCompleted
udp://tracker.coppersurfer.tk:6969/announce118280
Torrent Hash: 300D81A71F35B297DC8543C0DF330D0367554F6E
Not Yet Rated (Log in to rate it)
No comments still posted


Embed & Sharing


Login


Email:
Password:
[Signup]
[Recover Account]

Latest Forum


Author : Deep61
Subject :Alphabetical City Name Game V2
Last Replies :  Deep61
On : 2018-10-18 13:19:32

Author : nisu99
Subject :What PDF software do you use?
Last Replies :  skunklove
On : 2018-10-18 13:18:10

Author : KillerJaneprivateer
Subject :The No More Ransom Project
Last Replies :  skunklove
On : 2018-10-18 13:18:05

Author : smbd20009
Subject :Google DSCF image game
Last Replies :  miokdonated
On : 2018-10-18 13:18:01

Author : skunklove
Subject :Quote of The Day
Last Replies :  miokdonated
On : 2018-10-18 12:43:17

Author : Beowulf
Subject :Happy Birthday KATZ.
Last Replies :  Beowulf
On : 2018-10-18 12:24:47

Author : GodAndUlsterdonated
Subject :Which Antivirus do you use ?
Last Replies :  skunklove
On : 2018-10-18 12:20:18

Author : superiorSilicon
Subject :What Photo Editor do you use ?
Last Replies :  skunklove
On : 2018-10-18 12:20:14

Author : nisu99
Subject :E-books Request Thread v3
Last Replies :  Mikey
On : 2018-10-18 12:11:39


Pinned Threads


Author : Chelseaprivateer
Subject :It's Halloween Time!
Last Replies :  piratepete
On : 2018-10-18 11:09:22

Author : Deep61
Subject :2018 NASCAR Monster Energy Cup...
Last Replies :  skunklove
On : 2018-10-18 09:40:40

Author : Chelseaprivateer
Subject :Trick Math Questions Competiti...
Last Replies :  smbd20009
On : 2018-10-18 03:26:08

Author : Tipple
Subject :WWT Site Update Thread
Last Replies :  piratepete
On : 2018-10-16 08:58:05

Author : Gear Shifterdonated
Subject :WWT 2018/2019 NFL Competition
Last Replies :  steelman8713
On : 2018-10-18 02:13:47

Author : Chelseaprivateer
Subject :Guess the Movie!
Last Replies :  Test
On : 2018-10-16 07:50:28

Author : Midnight Rider
Subject :NFL 2019 Super Bowl Competitio...
Last Replies :  Nemesis43
On : 2018-09-28 22:36:24



Blog




Site Friends





Poll


You must be logged in to view polls