Torrent Details For "Formula 1 2018 Japanese Grand Prix Race HDTV x264 720"

Formula 1 2018 Japanese Grand Prix Race HDTV x264 720

Uploader's RSS Magnet Download Alt Download Safe Download Fast Download


Title: Formula 1 2018 Japanese Grand Prix Race HDTV x264 720
Category: TV/HD > Sports
Uploader:

Uploaded by HackRF*38

Date:

Uploaded on: Oct 07th, 2018

Seeders: 719
Leechers: 544
Completed: 1435
Downloaded: 29
Size: 4.92 GB
Language: English English
Formula 1  2018
Full Race Pre-Race-Post

Japanese Grand Prix
Suzuka Circuit
Sun, Oct 7
1:10 AM ET
ESPN2 - SkySports






General
Complete name                            : Formula 1 2018 Germany Grand Prix HDTV x264 720.mkv
Format                                   : Matroska
Format version                           : Version 4 / Version 2
File size                                : 3.53 GiB
Duration                                 : 2 h 18 min
Overall bit rate                         : 3 659 kb/s
Encoded date                             : UTC 2018-07-23 02:59:31
Writing application                      : mkvmerge v15.0.0 ('Duel with the Devil') 64-bit
Writing library                          : libebml v1.3.5 + libmatroska v1.4.5

Video
ID                                       : 1
Format                                   : AVC
Format/Info                              : Advanced Video Codec
Format profile                           : [email protected]
Format settings, CABAC                   : Yes
Format settings, RefFrames               : 5 frames
Codec ID                                 : V_MPEG4/ISO/AVC
Duration                                 : 2 h 18 min
Bit rate                                 : 3 271 kb/s
Width                                    : 1 280 pixels
Height                                   : 720 pixels
Display aspect ratio                     : 16:9
Frame rate mode                          : Constant
Frame rate                               : 59.940 (60000/1001) FPS
Color space                              : YUV
Chroma subsampling                       : 4:2:0
Bit depth                                : 8 bits
Scan type                                : Progressive
Bits/(Pixel*Frame)                       : 0.059
Stream size                              : 3.16 GiB (89%)
Writing library                          : x264 core 148 r2744 b97ae06
Default                                  : Yes
Forced                                   : No

Audio
ID                                       : 2
Format                                   : AC-3
Format/Info                              : Audio Coding 3
Format settings, Endianness              : Big
Codec ID                                 : A_AC3
Duration                                 : 2 h 18 min
Bit rate mode                            : Constant
Bit rate                                 : 384 kb/s
Channel(s)                               : 6 channels
Channel positions                        : Front: L C R, Side: L R, LFE
Sampling rate                            : 48.0 kHz
Frame rate                               : 31.250 FPS (1536 SPF)
Bit depth                                : 16 bits
Compression mode                         : Lossy
Stream size                              : 380 MiB (10%)
Language                                 : new
Service kind                             : Complete Main
Default                                  : Yes
Forced                                   : No

Japanese Grand Prix
Suzuka Circuit
Sun, Oct 7
1:10 AM ET
ESPN2 - SkySports






General
Complete name                            : Formula 1 2018  Japanese Grand Prix Race HDTV x264 720.mkv
Format                                   : Matroska
Format version                           : Version 4 / Version 2
File size                                : 4.92 GiB
Duration                                 : 2 h 26 min
Overall bit rate                         : 4 810 kb/s
Encoded date                             : UTC 2018-10-07 11:59:03
Writing application                      : mkvmerge v15.0.0 ('Duel with the Devil') 64-bit
Writing library                          : libebml v1.3.5 + libmatroska v1.4.5

Video
ID                                       : 1
Format                                   : AVC
Format/Info                              : Advanced Video Codec
Format profile                           : [email protected]
Format settings, CABAC                   : Yes
Format settings, RefFrames               : 5 frames
Codec ID                                 : V_MPEG4/ISO/AVC
Duration                                 : 2 h 26 min
Bit rate                                 : 4 422 kb/s
Width                                    : 1 280 pixels
Height                                   : 720 pixels
Display aspect ratio                     : 16:9
Frame rate mode                          : Constant
Frame rate                               : 59.940 (60000/1001) FPS
Color space                              : YUV
Chroma subsampling                       : 4:2:0
Bit depth                                : 8 bits
Scan type                                : Progressive
Bits/(Pixel*Frame)                       : 0.080
Stream size                              : 4.52 GiB (92%)
Writing library                          : x264 core 148 r2744 b97ae06
Default                                  : Yes
Forced                                   : No

Audio
ID                                       : 2
Format                                   : AC-3
Format/Info                              : Audio Coding 3
Format settings, Endianness              : Big
Codec ID                                 : A_AC3
Duration                                 : 2 h 26 min
Bit rate mode                            : Constant
Bit rate                                 : 384 kb/s
Channel(s)                               : 6 channels
Channel positions                        : Front: L C R, Side: L R, LFE
Sampling rate                            : 48.0 kHz
Frame rate                               : 31.250 FPS (1536 SPF)
Bit depth                                : 16 bits
Compression mode                         : Lossy
Stream size                              : 402 MiB (8%)
Language                                 : new
Service kind                             : Complete Main
Default                                  : Yes
Forced                                   : No
File Name: Size:
Downloaded from World Wide Torrents.me.txt1.41 kB
Downloaded from 1337x.to.txt336.00 B
Downloaded from Katcr.co .txt5.98 kB
Formula 1 2018 Japanese Grand Prix Race HDTV x264 720.mkv4.92 GB
Formula 1.txt5.02 kB
Torrent Downloaded from pirateiro.com .txt.txt759.00 B
TrackersSeedersLeechersCompleted
udp://tracker.torrent.eu.org:451/announce7195441,435
Torrent Hash: 07F3325B887C58A84D12213ADFB6482F40E47953
Not Yet Rated (Log in to rate it)
No comments still posted

Related Torrents

Torrents NameSizeSLAge
Formula 1 2018 Russian Grand Prix Race HDTV x 264 720 Sky
       0


by HackRF in TV/HD > Sports
3.64 GB 228 1,935 2 wks ago
Formula 1 [Singapore Grand Prix] .26.09.18. [WWRG]
       0


by Gear Shifterdonated in TV/HD > Sports
3.52 GB 631 167 4 wks ago
Formula 1 [Belgian Grand Prix] .26.08.18. [WWRG]
       0


by Gear Shifterdonated in TV/HD > Sports
3.39 GB 109 5 7 wks ago
Formula 1 [Bahrain Grand Prix] .04.16.17. [WWRG]
       0


by Gear Shifterdonated in TV/HD > Sports
2.97 GB 0 4 78 wks ago
Formula 1 [Bahrain Qualifying] 2017 [WWRG]
       0


by Gear Shifterdonated in TV/HD > Sports
1.41 GB 0 8 78 wks ago


Embed & Sharing


Login


Email:
Password:
[Signup]
[Recover Account]

Latest Forum


Author : Chelseaprivateer
Subject :It's Halloween Time!
Last Replies :  KillerJaneprivateer
On : 2018-10-21 09:36:19

Author : Deep61
Subject :The Numbers game V4
Last Replies :  Beowulf
On : 2018-10-21 06:42:08

Author : Beowulf
Subject :Count to 150! Before it gets r...
Last Replies :  Beowulf
On : 2018-10-21 06:39:40

Author : miokdonated
Subject :Show Us Your Desktop
Last Replies :  Beowulf
On : 2018-10-21 06:29:13

Author : sportsguru
Subject :All NFL Goes Here, Let's See Y...
Last Replies :  skunklove
On : 2018-10-21 06:25:13

Author : Gear Shifterdonated
Subject :Tampons and bra's
Last Replies :  Gear Shifterdonated
On : 2018-10-21 05:00:46

Author : Nemesis43
Subject :Comic Request Thread v07
Last Replies :  Sigs_Fong_Pa
On : 2018-10-21 04:27:29

Author : Gear Shifterdonated
Subject :Gear Shifter Sports Releases
Last Replies :  Gear Shifterdonated
On : 2018-10-21 04:11:04

Author : GodAndUlsterdonated
Subject :You Can Share Your Adult Jokes...
Last Replies :  GodAndUlsterdonated
On : 2018-10-21 02:10:11

Author : Deep61
Subject :Top Uploader Of The Month
Last Replies :  GodAndUlsterdonated
On : 2018-10-21 01:46:08

Author : Chelseaprivateer
Subject :Guess the Movie!
Last Replies :  Midnight Rider
On : 2018-10-21 00:59:42


Pinned Threads


Author : Chelseaprivateer
Subject :It's Halloween Time!
Last Replies :  KillerJaneprivateer
On : 2018-10-21 09:36:19

Author : Deep61
Subject :2018 NASCAR Monster Energy Cup...
Last Replies :  red4
On : 2018-10-20 15:23:03

Author : Chelseaprivateer
Subject :Trick Math Questions Competiti...
Last Replies :  Midnight Rider
On : 2018-10-21 00:57:29

Author : Tipple
Subject :WWT Site Update Thread
Last Replies :  Deep61
On : 2018-10-19 20:34:46

Author : Gear Shifterdonated
Subject :WWT 2018/2019 NFL Competition
Last Replies :  Deep61
On : 2018-10-18 23:22:45

Author : Chelseaprivateer
Subject :Guess the Movie!
Last Replies :  Midnight Rider
On : 2018-10-21 00:59:42

Author : Gear Shifterdonated
Subject :NFL 2019 Super Bowl Competitio...
Last Replies :  Nemesis43
On : 2018-09-28 22:36:24



Blog




Site Friends




Latest Torrents
Torrents NameSizeSLAge
Queen - Bohemian Rhapsody - The Original Soundtrack - (2018)[FLAC]-[TFM]
       0


by tifon in Music > Lossless
811.44 MB 0 15 6 mins ago
Tales.of.Frankenstein.2018.HDRip.XviD.AC3-EVO[EtMovies]
       0


by EtHD in Movies > Web rip, x264, x265
1.24 GB 0 0 8 mins ago
The Spy Who Dumped Me 2018 MultiSubs 720p BluRay x264-StB
       0


by SimplyTB in Movies > Highres Movies
4.37 GB 1 0 24 mins ago
QI XL P S16E02 Peril. revittony
       0


by revittony in TV > DVDRip/MP4
538.29 MB 1 0 29 mins ago
Live.PD.S03E10.HDTV.x264-CRiMSON[ettv]
       0


by ettv in TV > SD x264 x265
1.16 GB 20 18 38 mins ago
Halloween 2018.HDCAM.x264.AC3-ETRG
       0


by juggs in Movies > TS/Cam Rip
982.09 MB 50 221 58 mins ago
SAMSON ET DALILA Metopera 10.20.2018 HD 1080i mme
       0


by Mauricelugher in Movies > Music Videos
22.48 GB 13 14 1 hr ago
Night School 2018 HDTS x264 AC3-ETRG
       0


by juggs in Movies > TS/Cam Rip
985.80 MB 21 42 1 hr ago
Bettie Serveert - Oh, Mayhem! (2013) [FLAC]
       0


by tarporley in Music > Lossless
250.99 MB 2 4 2 hrs ago
VA - Ash968 - Trance Session 008 (2018) Mp3, 320 Kbps [EDM RG]
       0


by Ash968 in Music > MP3
321.58 MB 36 2 2 hrs ago

Poll


You must be logged in to view polls