Torrent Details For "Another Time 2018 Movies HDRip x264 5.1 with Sample ☻rDX☻"

Another Time 2018 Movies HDRip x264 5.1 with Sample ☻rDX☻



Title: Another Time 2018 Movies HDRip x264 5.1 with Sample ☻rDX☻
Category: Movies > Comedy
Uploader:

Uploaded by rdx*14401

Date:

Uploaded on: Sep 14th, 2018

Seeders: 34
Leechers: 7
Completed: 459
Downloaded: 10
Size: 846.67 MB
Language: English English
Another Time 2018 Movies HDRip x264 5.1 with Sample ☻rDX☻

:clapSCREEN SHOTS & POSTER::clap

http://iphonehosting.eu/2018/9/income/index.html
http://iphonehosting.eu/2018/9/income/1.html
http://iphonehosting.eu/2018/9/income/2.html
http://iphonehosting.eu/2018/9/income/3.html
http://iphonehosting.eu/2018/9/income/4.html
http://iphonehosting.eu/2018/9/income/5.html
http://iphonehosting.eu/2018/9/income/6.html
http://iphonehosting.eu/2018/9/income/7.html
http://iphonehosting.eu/2018/9/income/8.html
http://iphonehosting.eu/2018/9/income/9.html
http://iphonehosting.eu/2018/9/income/10.html


File size                                : 839 MiB
Duration                                 : 1 h 29 min
Overall bit rate mode                    : Constant
Overall bit rate                         : 1 315 kb/s
Movie name                               : Another Time 2018 Movies HDRip x264 5.1 ☻rDX☻

Video
ID                                       : 2
Format                                   : AVC
Format/Info                              : Advanced Video Codec
Format profile                           : [email protected]
Format settings, CABAC                   : Yes
Format settings, ReFrames                : 2 frames
Format settings, GOP                     : M=1, N=12
Codec ID                                 : V_MPEG4/ISO/AVC
Duration                                 : 1 h 29 min
Bit rate mode                            : Constant
Bit rate                                 : 932 kb/s
Width                                    : 720 pixels
Height                                   : 384 pixels
Display aspect ratio                     : 1.85:1
Frame rate mode                          : Constant
Frame rate                               : 24.000 FPS
Color space                              : YUV
Chroma subsampling                       : 4:2:0
Bit depth                                : 8 bits
Scan type                                : Progressive
Bits/(Pixel*Frame)                       : 0.140
Stream size                              : 577 MiB (69%)
Title                                    : ☻rDX☻
Default                                  : Yes
Forced                                   : No

Audio
ID                                       : 1
Format                                   : AC-3
Format/Info                              : Audio Coding 3
Mode extension                           : CM (complete main)
Format settings, Endianness              : Big
Codec ID                                 : A_AC3
Duration                                 : 1 h 29 min
Bit rate mode                            : Constant
Bit rate                                 : 384 kb/s
Channel(s)                               : 6 channels
Channel positions                        : Front: L C R, Side: L R, LFE
Sampling rate                            : 48.0 kHz
Frame rate                               : 31.250 FPS (1536 spf)
Bit depth                                : 16 bits
Compression mode                         : Lossy
Stream size                              : 245 MiB (29%)
Title                                    : ☻rDX☻
Language                                 : English
Default                                  : Yes
Forced                                   : No

https://www.imdb.com/title/tt3451984/
File Name: Size:
Another Time 2018 Movies HDRip x264 5.1 ☻rDX☻.mkv838.67 MB
Sample ~ Another Time 2018 Movies HDRip x264 5.1 ☻rDX☻.mkv8.00 MB
Another Time
Title: Another Time
Rated: 6 by 1 People.
A.K.A : Another Time
Released: 2018-09-14
Runtime: Minutes
Genre: 35, 18, 878, 10749
Language: en
Budget: USD
Plot: Just because a journey leads you somewhere you didn't expect, doesn't mean you ended up in the wrong place.
TMDB
TrackersSeedersLeechersCompleted
udp://tracker.coppersurfer.tk:6969/announce347459
Torrent Hash: 90C1245D48C36D81AC3F32A570AD015A8F4F802E
Not Yet Rated (Log in to rate it)
No comments still posted

Related Torrents


Embed & Sharing


Login


Email:
Password:
[Signup]
[Recover Account]

Latest Forum


Author : smbd20009
Subject :Google DSCF image game
Last Replies :  Csabaxb
On : 2018-09-22 17:22:14

Author : Nemesis43
Subject :Comic Request Thread v07
Last Replies :  msn12
On : 2018-09-22 17:14:32

Author : Beowulf
Subject :The Random XXX Sexy Girls Imag...
Last Replies :  Csabaxb
On : 2018-09-22 16:54:42

Author : Beowulf
Subject :Happy Birthday Midnight Rider...
Last Replies :  Csabaxb
On : 2018-09-22 16:42:39

Author : Tipple
Subject :Which TV Show Are You Watching...
Last Replies :  Csabaxb
On : 2018-09-22 15:58:32

Author : Tipple
Subject :2018 NASCAR Monster Energy Cup...
Last Replies :  miokdonated
On : 2018-09-22 14:09:15

Author : skunklove
Subject :Quote of The Day
Last Replies :  miokdonated
On : 2018-09-22 13:51:23

Author : Fluffy
Subject :Television Show Request Thread
Last Replies :  mckryn
On : 2018-09-22 12:54:06

Author : Tipple
Subject :Request Uploader Status Here
Last Replies :  miokdonated
On : 2018-09-22 12:45:59


Pinned Threads


Author : Chelseaprivateer
Subject :Hello Goodbye v2
Last Replies :  Csabaxb
On : 2018-09-22 11:38:18

Author : Tipple
Subject :2018 NASCAR Monster Energy Cup...
Last Replies :  miokdonated
On : 2018-09-22 14:09:15

Author : Chelseaprivateer
Subject :Trick Math Questions Competiti...
Last Replies :  Chelseaprivateer
On : 2018-09-17 17:59:27

Author : Tipple
Subject :WWT Site Update Thread
Last Replies :  piratepete
On : 2018-09-13 00:31:14

Author : Gear Shifterdonated
Subject :WWT 2018/2019 NFL Competition
Last Replies :  Gear Shifterdonated
On : 2018-09-22 03:12:49

Author : miokdonated
Subject :WWT Official Halloween Banner ...
Last Replies :  miokdonated
On : 2018-09-13 15:27:03



Blog




Site Friends




Latest Torrents
Torrents NameSizeSLAge
Flora 2018 Movies BRRip x264 AAC with Sample ☻rDX☻
       0


by rdx in Movies > Drama
798.65 MB 2 0 4 mins ago
Mamma.Mia.Here.We.Go.Again.2018.HC.HDRip.XViD.AC3-ETRG
       0


by juggs in Movies > Drama
1.30 GB 11 13 10 mins ago
Killjoys S04E10 720p x264-StB
       0


by SimplyTB in TV > HD
450.05 MB 3 0 13 mins ago
Mamma Mia Here We Go Again 2018 Movies HC 720p HDRip x264 AAC with Sample ☻rDX☻
       0


by rdx in Movies > Comedy
788.90 MB 7 0 27 mins ago
Rose Royce - Greatest Hits Live (2018) Mp3 Album 320kbps Quality
       0


by pmedia in Music > MP3
137.86 MB 31 10 27 mins ago
Naughty Book Worms Vol. 51 (2018)[DVDRIP][.MP4]
       0


by kaczorrra in XXX > Video
3.42 GB 7 0 53 mins ago
True MILF 4 [ArchAngel] (2018)
       0


by RH13 in XXX > Video
677.68 MB 11 0 54 mins ago
Sex Dreams [Wicked Pictures] (2018)
       0


by RH13 in XXX > Video
596.79 MB 11 0 57 mins ago
Wolves.and.Warriors.S01E04.Wolf.on.the.Loose.WEBRip.x264-CAFFEiNE[ettv]
       0


by ettv in TV > SD x264 x265
408.25 MB 36 33 59 mins ago
Tales Of The Young And Busty [New Sensations] (2018)
       0


by RH13 in XXX > Video
735.02 MB 11 0 1 hr ago

Poll


You must be logged in to view polls