Torrent Details For "Danger One 2018 Movies 720p HDRip x264 5.1 ESubs with Sample ☻rDX☻"

Danger One 2018 Movies 720p HDRip x264 5.1 ESubs with Sample ☻rDX☻



Title: Danger One 2018 Movies 720p HDRip x264 5.1 ESubs with Sample ☻rDX☻
Category: Movies > Mystery/Thriller
Uploader:

Uploaded by rdx*14397

Date:

Uploaded on: Sep 14th, 2018

Seeders: 19
Leechers: 2
Completed: 290
Downloaded: 8
Size: 1.02 GB
Language: English English
Danger One 2018 Movies 720p HDRip x264 5.1 ESubs with Sample ☻rDX☻

:clapSCREEN SHOTS & POSTER::clap

http://iphonehosting.eu/2018/9/interest/index.html
http://iphonehosting.eu/2018/9/interest/1.html
http://iphonehosting.eu/2018/9/interest/2.html
http://iphonehosting.eu/2018/9/interest/3.html
http://iphonehosting.eu/2018/9/interest/4.html
http://iphonehosting.eu/2018/9/interest/5.html
http://iphonehosting.eu/2018/9/interest/6.html
http://iphonehosting.eu/2018/9/interest/7.html
http://iphonehosting.eu/2018/9/interest/8.html
http://iphonehosting.eu/2018/9/interest/9.html
http://iphonehosting.eu/2018/9/interest/10.html


File size                                : 1.01 GiB
Duration                                 : 1 h 41 min
Overall bit rate                         : 1 419 kb/s
Movie name                               : Danger One 2018 Movies 720p HDRip x264 5.1 ESubs ☻rDX☻

Video
ID                                       : 2
Format                                   : AVC
Format/Info                              : Advanced Video Codec
Format profile                           : [email protected]
Format settings, CABAC                   : Yes
Format settings, ReFrames                : 5 frames
Codec ID                                 : V_MPEG4/ISO/AVC
Duration                                 : 1 h 41 min
Bit rate                                 : 1 034 kb/s
Width                                    : 1 280 pixels
Height                                   : 526 pixels
Display aspect ratio                     : 2.40:1
Frame rate mode                          : Constant
Frame rate                               : 23.976 (24000/1001) FPS
Color space                              : YUV
Chroma subsampling                       : 4:2:0
Bit depth                                : 8 bits
Scan type                                : Progressive
Bits/(Pixel*Frame)                       : 0.064
Stream size                              : 734 MiB (71%)
Title                                    : ☻rDX☻
Writing library                          : x264

Audio
ID                                       : 1
Format                                   : AC-3
Format/Info                              : Audio Coding 3
Mode extension                           : CM (complete main)
Format settings, Endianness              : Big
Codec ID                                 : A_AC3
Duration                                 : 1 h 41 min
Bit rate mode                            : Constant
Bit rate                                 : 384 kb/s
Channel(s)                               : 6 channels
Channel positions                        : Front: L C R, Side: L R, LFE
Sampling rate                            : 48.0 kHz
Frame rate                               : 31.250 FPS (1536 spf)
Bit depth                                : 16 bits
Compression mode                         : Lossy
Stream size                              : 280 MiB (27%)
Title                                    : ☻rDX☻
Default                                  : Yes
Forced                                   : No

Text
ID                                       : 3
Format                                   : UTF-8
Codec ID                                 : S_TEXT/UTF8
Codec ID/Info                            : UTF-8 Plain Text
Title                                    : ☻rDX☻
Language                                 : English
Default                                  : Yes
Forced                                   : No

https://www.imdb.com/title/tt6504538/
File Name: Size:
Danger One 2018 Movies 720p HDRip x264 5.1 ESubs ☻rDX☻.mkv1.01 GB
Sample ~ Danger One 2018 Movies 720p HDRip x264 5.1 ESubs ☻rDX☻.mkv10.12 MB
Danger One
Title: Danger One
Rated: 4 by 1 People.
A.K.A : Danger One
Released: 2018-09-14
Runtime: Minutes
Genre: 28, 35, 80, 53
Language: en
Budget: USD
Plot: While transporting a dying man to the hospital, two paramedics find a million dollars in cash sewn into his clothing. When the man dies, they decide to keep it, setting them on a path for a hellish night of violence and mayhem.
TMDB
TrackersSeedersLeechersCompleted
udp://tracker.coppersurfer.tk:6969/announce192290
Torrent Hash: 3BE2826B976FAE42CE09C3F245CFDE8C70A2077D
Not Yet Rated (Log in to rate it)
No comments still posted

Related Torrents

Torrents NameSizeSLAge
Danger One 2018 Movies 720p HDRip x264 AAC ESubs with Sample ☻rDX☻
       0


by rdx in Movies > Action
810.12 MB 16 0 1 wk ago
Danger One 2018 Movies HDRip x264 5.1 with Sample ☻rDX☻
       0


by rdx in Movies > Action
846.90 MB 6 4 1 wk ago
Danger One 2018 Movies HDRip x264 AAC with Sample ☻rDX☻
       0


by rdx in Movies > Action
705.49 MB 25 14 1 wk ago
Danger.One.2018.HDRip.XviD.AC3-EVO
       0


by Silmarillion in Movies > Xvid/Divx
1.42 GB 176 500 1 wk ago
Danger.One.2018.HDRip.XviD.AC3-EVO[EtMovies]
       0


by EtHD in Movies > Web rip, x264, x265
1.42 GB 18 22 1 wk ago


Embed & Sharing


Login


Email:
Password:
[Signup]
[Recover Account]

Latest Forum


Author : Beowulf
Subject :Happy Birthday Midnight Rider...
Last Replies :  The_Void
On : 2018-09-22 16:10:43

Author : smbd20009
Subject :Google DSCF image game
Last Replies :  Csabaxb
On : 2018-09-22 16:07:23

Author : Tipple
Subject :Which TV Show Are You Watching...
Last Replies :  Csabaxb
On : 2018-09-22 15:58:32

Author : Tipple
Subject :2018 NASCAR Monster Energy Cup...
Last Replies :  miokdonated
On : 2018-09-22 14:09:15

Author : skunklove
Subject :Quote of The Day
Last Replies :  miokdonated
On : 2018-09-22 13:51:23

Author : Nemesis43
Subject :Comic Request Thread v07
Last Replies :  stealingsbad
On : 2018-09-22 13:41:08

Author : Fluffy
Subject :Television Show Request Thread
Last Replies :  mckryn
On : 2018-09-22 12:54:06

Author : Tipple
Subject :Request Uploader Status Here
Last Replies :  miokdonated
On : 2018-09-22 12:45:59

Author : NotNeo
Subject :NotNeo's Seedbox
Last Replies :  NotNeo
On : 2018-09-22 12:30:32

Author : Beowulf
Subject :The Random XXX Sexy Girls Imag...
Last Replies :  Deep61
On : 2018-09-22 12:14:25


Pinned Threads


Author : Chelseaprivateer
Subject :Hello Goodbye v2
Last Replies :  Csabaxb
On : 2018-09-22 11:38:18

Author : Tipple
Subject :2018 NASCAR Monster Energy Cup...
Last Replies :  miokdonated
On : 2018-09-22 14:09:15

Author : Chelseaprivateer
Subject :Trick Math Questions Competiti...
Last Replies :  Chelseaprivateer
On : 2018-09-17 17:59:27

Author : Tipple
Subject :WWT Site Update Thread
Last Replies :  piratepete
On : 2018-09-13 00:31:14

Author : Gear Shifterdonated
Subject :WWT 2018/2019 NFL Competition
Last Replies :  Gear Shifterdonated
On : 2018-09-22 03:12:49

Author : miokdonated
Subject :WWT Official Halloween Banner ...
Last Replies :  miokdonated
On : 2018-09-13 15:27:03



Blog




Site Friends




Latest Torrents
Torrents NameSizeSLAge
Naked News 2018-09-19
       0


by RH13 in XXX > Video
146.41 MB 0 0 3 mins ago
Hotwives Are Sexy [New Sensations] (2018)
       0


by RH13 in XXX > Video
1.59 GB 11 0 7 mins ago
Fats Domino - The Original Rock 'N' Roll Classics - 8-CD-(2012)-[MP3-320]-[TFM]
       0


by tifon in Music > MP3
717.58 MB 464 306 7 mins ago
At His Mercy - 4 Hours [Digital Sin] (2018)
       0


by RH13 in XXX > Video
1.36 GB 11 0 11 mins ago
Uriah Heep - Living The Dream - (2018)-[FLAC]-[TFM]
       0


by tifon in Music > Lossless
860.70 MB 146 124 14 mins ago
Loving The Cock 2 [Desire Films] (2016)
       0


by RH13 in XXX > Video
1.05 GB 11 0 15 mins ago
My First Sex Teacher Vol. 58 [Naughty America] (2018)
       0


by RH13 in XXX > Video
1.02 GB 11 0 19 mins ago
[TransAngels] Janelle Fennec, Will Havoc - Anal Archives (15.09.2018) rq.mp4
       0


by rqj93067 in XXX > Video
347.53 MB 0 0 19 mins ago
My Girlfriend's Busty Friend 25 [Naughty America] (2018)
       0


by RH13 in XXX > Video
1.06 GB 21 0 23 mins ago
[TransAngels] Domino Presley, Michael DelRay - A Big Work-Load (22.09.2018) rq.mp4
       0


by rqj93067 in XXX > Video
339.76 MB 0 0 23 mins ago

Poll


You must be logged in to view polls