Torrent Details For "18+ Armed 2018 UNCENSORED Movies 720p HDRip x264 5.1 with Sample ☻rDX☻"

18+ Armed 2018 UNCENSORED Movies 720p HDRip x264 5.1 with Sample ☻rDX☻



Title: 18+ Armed 2018 UNCENSORED Movies 720p HDRip x264 5.1 with Sample ☻rDX☻
Category: Movies > Action
Uploader:

Uploaded by rdx*14397

Date:

Uploaded on: Sep 14th, 2018

Seeders: 63
Leechers: 44
Completed: 853
Downloaded: 20
Size: 1.21 GB
Language: English English
18+ Armed 2018 UNCENSORED Movies 720p HDRip x264 5.1 with Sample ☻rDX☻

:clapSCREEN SHOTS & POSTER::clap

http://iphonehosting.eu/2018/9/invest/index.html
http://iphonehosting.eu/2018/9/invest/1.html
http://iphonehosting.eu/2018/9/invest/2.html
http://iphonehosting.eu/2018/9/invest/3.html
http://iphonehosting.eu/2018/9/invest/4.html
http://iphonehosting.eu/2018/9/invest/5.html
http://iphonehosting.eu/2018/9/invest/6.html
http://iphonehosting.eu/2018/9/invest/7.html
http://iphonehosting.eu/2018/9/invest/8.html
http://iphonehosting.eu/2018/9/invest/9.html
http://iphonehosting.eu/2018/9/invest/10.html


File size                                : 1.20 GiB
Duration                                 : 2 h 0 min
Overall bit rate                         : 1 429 kb/s
Movie name                               : 18+ Armed 2018 UNCENSORED Movies 720p HDRip x264 5.1 ☻rDX☻

Video
ID                                       : 2
Format                                   : AVC
Format/Info                              : Advanced Video Codec
Format profile                           : [email protected]
Format settings, CABAC                   : Yes
Format settings, ReFrames                : 5 frames
Codec ID                                 : V_MPEG4/ISO/AVC
Duration                                 : 2 h 0 min
Bit rate                                 : 1 044 kb/s
Width                                    : 1 280 pixels
Height                                   : 532 pixels
Display aspect ratio                     : 2.40:1
Original display aspect ratio            : 2.40:1
Frame rate mode                          : Constant
Frame rate                               : 23.976 (24000/1001) FPS
Color space                              : YUV
Chroma subsampling                       : 4:2:0
Bit depth                                : 8 bits
Scan type                                : Progressive
Bits/(Pixel*Frame)                       : 0.064
Stream size                              : 874 MiB (71%)
Title                                    : ☻rDX☻
Writing library                          : x264

Audio
ID                                       : 1
Format                                   : AC-3
Format/Info                              : Audio Coding 3
Mode extension                           : CM (complete main)
Format settings, Endianness              : Big
Codec ID                                 : A_AC3
Duration                                 : 2 h 0 min
Bit rate mode                            : Constant
Bit rate                                 : 384 kb/s
Channel(s)                               : 6 channels
Channel positions                        : Front: L C R, Side: L R, LFE
Sampling rate                            : 48.0 kHz
Frame rate                               : 31.250 FPS (1536 spf)
Bit depth                                : 16 bits
Compression mode                         : Lossy
Stream size                              : 330 MiB (27%)
Title                                    : ☻rDX☻
Default                                  : Yes
Forced                                   : No

https://www.imdb.com/title/tt4824316/
File Name: Size:
18+ Armed 2018 UNCENSORED Movies 720p HDRip x264 5.1 ☻rDX☻.mkv1.20 GB
Sample ~ 18+ Armed 2018 UNCENSORED Movies 720p HDRip x264 5.1 ☻rDX☻.mkv14.05 MB
Armed
Title: Armed
Rated: 4 by 1 People.
A.K.A : Armed
Released: 2018-09-14
Runtime: Minutes
Genre: 28, 53
Language: en
Budget: USD
Plot: A former U.S. marshal discovers that all of the survivors of his old unit are experiencing the same symptoms simultaneously and there may be a larger conspiracy at hand.
TMDB
TrackersSeedersLeechersCompleted
udp://tracker.coppersurfer.tk:6969/announce6344853
Torrent Hash: 21AFA88153385584BEF6FA8C09222DB43CDD3414
Not Yet Rated (Log in to rate it)
No comments still posted


Embed & Sharing


Login


Email:
Password:
[Signup]
[Recover Account]

Latest Forum


Author : Beowulf
Subject :Happy Birthday Midnight Rider...
Last Replies :  The_Void
On : 2018-09-22 16:10:43

Author : smbd20009
Subject :Google DSCF image game
Last Replies :  Csabaxb
On : 2018-09-22 16:07:23

Author : Tipple
Subject :Which TV Show Are You Watching...
Last Replies :  Csabaxb
On : 2018-09-22 15:58:32

Author : Tipple
Subject :2018 NASCAR Monster Energy Cup...
Last Replies :  miokdonated
On : 2018-09-22 14:09:15

Author : skunklove
Subject :Quote of The Day
Last Replies :  miokdonated
On : 2018-09-22 13:51:23

Author : Nemesis43
Subject :Comic Request Thread v07
Last Replies :  stealingsbad
On : 2018-09-22 13:41:08

Author : Fluffy
Subject :Television Show Request Thread
Last Replies :  mckryn
On : 2018-09-22 12:54:06

Author : Tipple
Subject :Request Uploader Status Here
Last Replies :  miokdonated
On : 2018-09-22 12:45:59

Author : NotNeo
Subject :NotNeo's Seedbox
Last Replies :  NotNeo
On : 2018-09-22 12:30:32

Author : Beowulf
Subject :The Random XXX Sexy Girls Imag...
Last Replies :  Deep61
On : 2018-09-22 12:14:25


Pinned Threads


Author : Chelseaprivateer
Subject :Hello Goodbye v2
Last Replies :  Csabaxb
On : 2018-09-22 11:38:18

Author : Tipple
Subject :2018 NASCAR Monster Energy Cup...
Last Replies :  miokdonated
On : 2018-09-22 14:09:15

Author : Chelseaprivateer
Subject :Trick Math Questions Competiti...
Last Replies :  Chelseaprivateer
On : 2018-09-17 17:59:27

Author : Tipple
Subject :WWT Site Update Thread
Last Replies :  piratepete
On : 2018-09-13 00:31:14

Author : Gear Shifterdonated
Subject :WWT 2018/2019 NFL Competition
Last Replies :  Gear Shifterdonated
On : 2018-09-22 03:12:49

Author : miokdonated
Subject :WWT Official Halloween Banner ...
Last Replies :  miokdonated
On : 2018-09-13 15:27:03



Blog




Site Friends




Latest Torrents
Torrents NameSizeSLAge
Naked News 2018-09-19
       0


by RH13 in XXX > Video
146.41 MB 0 0 4 mins ago
Hotwives Are Sexy [New Sensations] (2018)
       0


by RH13 in XXX > Video
1.59 GB 11 0 8 mins ago
Fats Domino - The Original Rock 'N' Roll Classics - 8-CD-(2012)-[MP3-320]-[TFM]
       0


by tifon in Music > MP3
717.58 MB 464 306 8 mins ago
At His Mercy - 4 Hours [Digital Sin] (2018)
       0


by RH13 in XXX > Video
1.36 GB 11 0 12 mins ago
Uriah Heep - Living The Dream - (2018)-[FLAC]-[TFM]
       0


by tifon in Music > Lossless
860.70 MB 146 124 15 mins ago
Loving The Cock 2 [Desire Films] (2016)
       0


by RH13 in XXX > Video
1.05 GB 11 0 16 mins ago
My First Sex Teacher Vol. 58 [Naughty America] (2018)
       0


by RH13 in XXX > Video
1.02 GB 11 0 19 mins ago
[TransAngels] Janelle Fennec, Will Havoc - Anal Archives (15.09.2018) rq.mp4
       0


by rqj93067 in XXX > Video
347.53 MB 0 0 20 mins ago
My Girlfriend's Busty Friend 25 [Naughty America] (2018)
       0


by RH13 in XXX > Video
1.06 GB 21 0 24 mins ago
[TransAngels] Domino Presley, Michael DelRay - A Big Work-Load (22.09.2018) rq.mp4
       0


by rqj93067 in XXX > Video
339.76 MB 0 0 24 mins ago

Poll


You must be logged in to view polls