Torrent Details For "18+ Armed 2018 UNCENSORED Movies HDRip x264 5.1 with Sample ☻rDX☻"

18+ Armed 2018 UNCENSORED Movies HDRip x264 5.1 with Sample ☻rDX☻



Title: 18+ Armed 2018 UNCENSORED Movies HDRip x264 5.1 with Sample ☻rDX☻
Category: Movies > Action
Uploader:

Uploaded by rdx*14399

Date:

Uploaded on: Sep 14th, 2018

Seeders: 31
Leechers: 31
Completed: 583
Downloaded: 16
Size: 845.48 MB
Language: English English
18+ Armed 2018 UNCENSORED Movies HDRip x264 5.1 with Sample ☻rDX☻

:clapSCREEN SHOTS & POSTER::clap

http://iphonehosting.eu/2018/9/investment/index.html
http://iphonehosting.eu/2018/9/investment/1.html
http://iphonehosting.eu/2018/9/investment/2.html
http://iphonehosting.eu/2018/9/investment/3.html
http://iphonehosting.eu/2018/9/investment/4.html
http://iphonehosting.eu/2018/9/investment/5.html
http://iphonehosting.eu/2018/9/investment/6.html
http://iphonehosting.eu/2018/9/investment/7.html
http://iphonehosting.eu/2018/9/investment/8.html
http://iphonehosting.eu/2018/9/investment/9.html
http://iphonehosting.eu/2018/9/investment/10.html


File size                                : 838 MiB
Duration                                 : 2 h 0 min
Overall bit rate mode                    : Constant
Overall bit rate                         : 976 kb/s
Movie name                               : 18+ Armed 2018 UNCENSORED Movies HDRip x264 5.1 ☻rDX☻

Video
ID                                       : 2
Format                                   : AVC
Format/Info                              : Advanced Video Codec
Format profile                           : [email protected]
Format settings, CABAC                   : Yes
Format settings, ReFrames                : 2 frames
Format settings, GOP                     : M=1, N=12
Codec ID                                 : V_MPEG4/ISO/AVC
Duration                                 : 2 h 0 min
Bit rate mode                            : Constant
Bit rate                                 : 593 kb/s
Width                                    : 720 pixels
Height                                   : 304 pixels
Display aspect ratio                     : 2.35:1
Frame rate mode                          : Constant
Frame rate                               : 23.976 FPS
Color space                              : YUV
Chroma subsampling                       : 4:2:0
Bit depth                                : 8 bits
Scan type                                : Progressive
Bits/(Pixel*Frame)                       : 0.113
Stream size                              : 492 MiB (59%)
Title                                    : ☻rDX☻
Default                                  : Yes
Forced                                   : No

Audio
ID                                       : 1
Format                                   : AC-3
Format/Info                              : Audio Coding 3
Mode extension                           : CM (complete main)
Format settings, Endianness              : Big
Codec ID                                 : A_AC3
Duration                                 : 2 h 0 min
Bit rate mode                            : Constant
Bit rate                                 : 384 kb/s
Channel(s)                               : 6 channels
Channel positions                        : Front: L C R, Side: L R, LFE
Sampling rate                            : 48.0 kHz
Frame rate                               : 31.250 FPS (1536 spf)
Bit depth                                : 16 bits
Compression mode                         : Lossy
Stream size                              : 330 MiB (39%)
Title                                    : ☻rDX☻
Default                                  : Yes
Forced                                   : No

https://www.imdb.com/title/tt4824316/
File Name: Size:
18+ Armed 2018 UNCENSORED Movies HDRip x264 5.1 ☻rDX☻.mkv838.46 MB
Sample ~ 18+ Armed 2018 UNCENSORED Movies HDRip x264 5.1 ☻rDX☻.mkv7.01 MB
Armed
Title: Armed
Rated: 4 by 1 People.
A.K.A : Armed
Released: 2018-09-14
Runtime: Minutes
Genre: 28, 53
Language: en
Budget: USD
Plot: A former U.S. marshal discovers that all of the survivors of his old unit are experiencing the same symptoms simultaneously and there may be a larger conspiracy at hand.
TMDB
TrackersSeedersLeechersCompleted
udp://tracker.coppersurfer.tk:6969/announce3131583
Torrent Hash: 4F6F2B4F7B7206BB810603C29C6E5E1BDE5E3A2E
Not Yet Rated (Log in to rate it)
No comments still posted


Embed & Sharing


Login


Email:
Password:
[Signup]
[Recover Account]

Latest Forum


Author : Nemesis43
Subject :Comic Request Thread v07
Last Replies :  msn12
On : 2018-09-22 17:14:32

Author : smbd20009
Subject :Google DSCF image game
Last Replies :  Csabaxb
On : 2018-09-22 16:56:56

Author : Beowulf
Subject :The Random XXX Sexy Girls Imag...
Last Replies :  Csabaxb
On : 2018-09-22 16:54:42

Author : Beowulf
Subject :Happy Birthday Midnight Rider...
Last Replies :  Csabaxb
On : 2018-09-22 16:42:39

Author : Tipple
Subject :Which TV Show Are You Watching...
Last Replies :  Csabaxb
On : 2018-09-22 15:58:32

Author : Tipple
Subject :2018 NASCAR Monster Energy Cup...
Last Replies :  miokdonated
On : 2018-09-22 14:09:15

Author : skunklove
Subject :Quote of The Day
Last Replies :  miokdonated
On : 2018-09-22 13:51:23

Author : Fluffy
Subject :Television Show Request Thread
Last Replies :  mckryn
On : 2018-09-22 12:54:06

Author : Tipple
Subject :Request Uploader Status Here
Last Replies :  miokdonated
On : 2018-09-22 12:45:59


Pinned Threads


Author : Chelseaprivateer
Subject :Hello Goodbye v2
Last Replies :  Csabaxb
On : 2018-09-22 11:38:18

Author : Tipple
Subject :2018 NASCAR Monster Energy Cup...
Last Replies :  miokdonated
On : 2018-09-22 14:09:15

Author : Chelseaprivateer
Subject :Trick Math Questions Competiti...
Last Replies :  Chelseaprivateer
On : 2018-09-17 17:59:27

Author : Tipple
Subject :WWT Site Update Thread
Last Replies :  piratepete
On : 2018-09-13 00:31:14

Author : Gear Shifterdonated
Subject :WWT 2018/2019 NFL Competition
Last Replies :  Gear Shifterdonated
On : 2018-09-22 03:12:49

Author : miokdonated
Subject :WWT Official Halloween Banner ...
Last Replies :  miokdonated
On : 2018-09-13 15:27:03



Blog




Site Friends




Latest Torrents
Torrents NameSizeSLAge
Naughty Book Worms Vol. 51 (2018)[DVDRIP][.MP4]
       0


by kaczorrra in XXX > Video
3.42 GB 7 0 28 mins ago
True MILF 4 [ArchAngel] (2018)
       0


by RH13 in XXX > Video
677.68 MB 11 0 29 mins ago
Sex Dreams [Wicked Pictures] (2018)
       0


by RH13 in XXX > Video
596.79 MB 11 0 32 mins ago
Wolves.and.Warriors.S01E04.Wolf.on.the.Loose.WEBRip.x264-CAFFEiNE[ettv]
       0


by ettv in TV > SD x264 x265
408.25 MB 0 0 35 mins ago
Tales Of The Young And Busty [New Sensations] (2018)
       0


by RH13 in XXX > Video
735.02 MB 11 0 36 mins ago
Babysitter Diaries
       0


by RH13 in XXX > Video
689.98 MB 10 0 40 mins ago
[X-Art] Nikki Fox, Anny Aurora - Surprise Sex For Three (22.09.2018) rq.MP4
       0


by rqj93067 in XXX > Video
634.85 MB 0 0 40 mins ago
Naked News 2018-09-19
       0


by RH13 in XXX > Video
146.41 MB 9 0 43 mins ago
Hotwives Are Sexy [New Sensations] (2018)
       0


by RH13 in XXX > Video
1.59 GB 11 0 47 mins ago
Fats Domino - The Original Rock 'N' Roll Classics - 8-CD-(2012)-[MP3-320]-[TFM]
       0


by tifon in Music > MP3
717.58 MB 464 306 47 mins ago

Poll


You must be logged in to view polls