Torrent Details For "18+ Mandy 2018 UNCENSORED Movies 720p HDRip x264 5.1 ESubs with Sample ☻rDX☻"

18+ Mandy 2018 UNCENSORED Movies 720p HDRip x264 5.1 ESubs with Sample ☻rDX☻



Title: 18+ Mandy 2018 UNCENSORED Movies 720p HDRip x264 5.1 ESubs with Sample ☻rDX☻
Category: Movies > Action
Uploader:

Uploaded by rdx*14399

Date:

Uploaded on: Sep 14th, 2018

Seeders: 109
Leechers: 50
Completed: 3612
Downloaded: 25
Size: 1.21 GB
Language: English English
18+ Mandy 2018 UNCENSORED Movies 720p HDRip x264 5.1 ESubs with Sample ☻rDX☻

:clapSCREEN SHOTS & POSTER::clap

http://iphonehosting.eu/2018/9/iphone6/index.html
http://iphonehosting.eu/2018/9/iphone6/1.html
http://iphonehosting.eu/2018/9/iphone6/2.html
http://iphonehosting.eu/2018/9/iphone6/3.html
http://iphonehosting.eu/2018/9/iphone6/4.html
http://iphonehosting.eu/2018/9/iphone6/5.html
http://iphonehosting.eu/2018/9/iphone6/6.html
http://iphonehosting.eu/2018/9/iphone6/7.html
http://iphonehosting.eu/2018/9/iphone6/8.html
http://iphonehosting.eu/2018/9/iphone6/9.html
http://iphonehosting.eu/2018/9/iphone6/10.html


File size                                : 1.20 GiB
Duration                                 : 2 h 1 min
Overall bit rate                         : 1 419 kb/s
Movie name                               : 18+ Mandy 2018 UNCENSORED Movies 720p HDRip x264 5.1 ESubs ☻rDX☻

Video
ID                                       : 2
Format                                   : AVC
Format/Info                              : Advanced Video Codec
Format profile                           : [email protected]
Format settings, CABAC                   : Yes
Format settings, ReFrames                : 5 frames
Codec ID                                 : V_MPEG4/ISO/AVC
Duration                                 : 2 h 1 min
Bit rate                                 : 1 034 kb/s
Width                                    : 1 280 pixels
Height                                   : 536 pixels
Display aspect ratio                     : 2.40:1
Frame rate mode                          : Constant
Frame rate                               : 23.976 (24000/1001) FPS
Color space                              : YUV
Chroma subsampling                       : 4:2:0
Bit depth                                : 8 bits
Scan type                                : Progressive
Bits/(Pixel*Frame)                       : 0.063
Stream size                              : 873 MiB (71%)
Title                                    : ☻rDX☻
Writing library                          : x264

Audio
ID                                       : 1
Format                                   : AC-3
Format/Info                              : Audio Coding 3
Mode extension                           : CM (complete main)
Format settings, Endianness              : Big
Codec ID                                 : A_AC3
Duration                                 : 2 h 1 min
Bit rate mode                            : Constant
Bit rate                                 : 384 kb/s
Channel(s)                               : 6 channels
Channel positions                        : Front: L C R, Side: L R, LFE
Sampling rate                            : 48.0 kHz
Frame rate                               : 31.250 FPS (1536 spf)
Bit depth                                : 16 bits
Compression mode                         : Lossy
Stream size                              : 333 MiB (27%)
Title                                    : ☻rDX☻
Default                                  : Yes
Forced                                   : No

Text
ID                                       : 3
Format                                   : UTF-8
Codec ID                                 : S_TEXT/UTF8
Codec ID/Info                            : UTF-8 Plain Text
Title                                    : ☻rDX☻
Language                                 : English
Default                                  : Yes
Forced                                   : No

https://www.imdb.com/title/tt6998518/
File Name: Size:
18+ Mandy 2018 UNCENSORED Movies 720p HDRip x264 5.1 ESubs ☻rDX☻.mkv1.20 GB
Sample ~ 18+ Mandy 2018 UNCENSORED Movies 720p HDRip x264 5.1 ESubs ☻rDX☻.mkv11.62 MB
Mandy
Title: Mandy
Rated: 6.8 by 62 People.
A.K.A : Mandy
Released: 2018-09-13
Runtime: Minutes
Genre: 28, 27, 53
Language: en
Budget: USD
Plot: The Shadow Mountains, 1983. Red and Mandy lead a loving and peaceful existence; but when their pine-scented haven is savagely destroyed, Red is catapulted into a phantasmagoric journey filled with bloody vengeance and laced with fire.
TMDB
TrackersSeedersLeechersCompleted
udp://tracker.coppersurfer.tk:6969/announce109503,612
Torrent Hash: 648F355593E8A8ED47E736C71C1BB597E033CE07
Not Yet Rated (Log in to rate it)
No comments still posted


Embed & Sharing


Login


Email:
Password:
[Signup]
[Recover Account]

Latest Forum


Author : smbd20009
Subject :Google DSCF image game
Last Replies :  Csabaxb
On : 2018-09-22 17:22:14

Author : Nemesis43
Subject :Comic Request Thread v07
Last Replies :  msn12
On : 2018-09-22 17:14:32

Author : Beowulf
Subject :The Random XXX Sexy Girls Imag...
Last Replies :  Csabaxb
On : 2018-09-22 16:54:42

Author : Beowulf
Subject :Happy Birthday Midnight Rider...
Last Replies :  Csabaxb
On : 2018-09-22 16:42:39

Author : Tipple
Subject :Which TV Show Are You Watching...
Last Replies :  Csabaxb
On : 2018-09-22 15:58:32

Author : Tipple
Subject :2018 NASCAR Monster Energy Cup...
Last Replies :  miokdonated
On : 2018-09-22 14:09:15

Author : skunklove
Subject :Quote of The Day
Last Replies :  miokdonated
On : 2018-09-22 13:51:23

Author : Fluffy
Subject :Television Show Request Thread
Last Replies :  mckryn
On : 2018-09-22 12:54:06

Author : Tipple
Subject :Request Uploader Status Here
Last Replies :  miokdonated
On : 2018-09-22 12:45:59


Pinned Threads


Author : Chelseaprivateer
Subject :Hello Goodbye v2
Last Replies :  Csabaxb
On : 2018-09-22 11:38:18

Author : Tipple
Subject :2018 NASCAR Monster Energy Cup...
Last Replies :  miokdonated
On : 2018-09-22 14:09:15

Author : Chelseaprivateer
Subject :Trick Math Questions Competiti...
Last Replies :  Chelseaprivateer
On : 2018-09-17 17:59:27

Author : Tipple
Subject :WWT Site Update Thread
Last Replies :  piratepete
On : 2018-09-13 00:31:14

Author : Gear Shifterdonated
Subject :WWT 2018/2019 NFL Competition
Last Replies :  Gear Shifterdonated
On : 2018-09-22 03:12:49

Author : miokdonated
Subject :WWT Official Halloween Banner ...
Last Replies :  miokdonated
On : 2018-09-13 15:27:03



Blog




Site Friends




Latest Torrents
Torrents NameSizeSLAge
Mamma Mia Here We Go Again 2018 Movies HC 720p HDRip x264 AAC with Sample ☻rDX☻
       0


by rdx in Movies > Comedy
788.90 MB 7 0 12 mins ago
Rose Royce - Greatest Hits Live (2018) Mp3 Album 320kbps Quality
       0


by pmedia in Music > MP3
137.86 MB 31 10 13 mins ago
Naughty Book Worms Vol. 51 (2018)[DVDRIP][.MP4]
       0


by kaczorrra in XXX > Video
3.42 GB 7 0 38 mins ago
True MILF 4 [ArchAngel] (2018)
       0


by RH13 in XXX > Video
677.68 MB 11 0 39 mins ago
Sex Dreams [Wicked Pictures] (2018)
       0


by RH13 in XXX > Video
596.79 MB 11 0 43 mins ago
Wolves.and.Warriors.S01E04.Wolf.on.the.Loose.WEBRip.x264-CAFFEiNE[ettv]
       0


by ettv in TV > SD x264 x265
408.25 MB 36 33 45 mins ago
Tales Of The Young And Busty [New Sensations] (2018)
       0


by RH13 in XXX > Video
735.02 MB 11 0 46 mins ago
Babysitter Diaries
       0


by RH13 in XXX > Video
689.98 MB 10 0 50 mins ago
[X-Art] Nikki Fox, Anny Aurora - Surprise Sex For Three (22.09.2018) rq.MP4
       0


by rqj93067 in XXX > Video
634.85 MB 39 171 51 mins ago
Naked News 2018-09-19
       0


by RH13 in XXX > Video
146.41 MB 9 0 54 mins ago

Poll


You must be logged in to view polls